Loading...
Error

Скачать Инспектор Гаджет / Inspector Gadget (Дэвид Келлогг) [1999, фантастика, боевик, комедия, приключения, семейный, DVDRip] [Dub]+[MVO]+[AVO]+[Оригинал]+[Sub] торрент без регистрации

 
Статистика раздачи
Размер:  1,46 GB   |    Скачан:  143 раза
Сидов:  1  [  0 KB/s  ]  
 
Автор Сообщение

Marsianka

[] 

Год выпуска: 1999
Страна: США
Студия: Caravan Pictures

Перевод: Профессиональный (дублированный) + Профессиональный (многоголосый, закадровый) + Авторский (Юрий Живов)
Оригинальная аудиодорожка: английский
Субтитры: русский, английский

Жанр: фантастика, боевик, комедия, приключения, семейный
Продолжительность: 01:15:10

Режиссер:Дэвид Келлогг / David Kellogg

В ролях: Мэттью Бродерик, Руперт Эверетт, Джоэли Фишер, Мишель Трахтенберг, Энди Дик, Шери Отери, Майкл Дж. Хэгерти, Дэбни Коулмен, Д.Л. Хьюли, Рене Обержонуа...

Роли дублировали: Евгений Дятлов, Александр Лушин, Алексей Гурьев, Валерий Кухарешин, Вадим Никитин...

Описание: Неприметный охранник Джон Браун всю жизнь мечтал стать величайшим полицейским в истории. Сама судьба подарила ему этот шанс: после страшного взрыва Джон попадает в секретную научную лабораторию, где ученые превращают непутевого охранника в идеального служителя закона. Он становится инспектором Гаджетом, полицейским ХХI века, в теле которого 14000 техническим приспособлений на все случаи жизни.
Совершенная машина по борьбе с преступностью настигнет любого, где бы он ни спрятался и как бы быстро ни убегал. Но на пути непобедимого супергероя неожиданно встает суперзлодей, который раскрыл тайну секретных технологий и создал идеального преступника, точную копию инспектора Гаджета!

Исходник: DVD5 R5
Качество: DVDRip
Формат: AVI

Видео: 704x384 (1.85:1), 25.000 fps, XviD MPEG-4 ~1484 kbps avg, 0.220 bit/pixel
Аудио 1: Русский: 48 kHz, Dolby AC3, 2 ch, 192.00 kbps Constant | дублированный
Аудио 2: Английский: 48 kHz, Dolby AC3, 6 ch, 448.00 kbps Constant
Аудио 3: Русский: 48 kHz, Dolby AC3, 2 ch, 192.00 kbps Constant | профессиональный многоголосый
Аудио 4: Русский: 48 kHz, Dolby AC3, 6 ch, 448.00 kbps Constant | Авторский (Юрий Живов)
Формат субтитров: SoftSub (srt)
Раздача от:

Общее
Полное имя : D:Tracker2012Inspektor.Gadzhet.1999Inspektor.Gadzhet.1999.D.DVDRip_[Youtracker]_by_avprohInspektor.Gadzhet.1999.D.DVDRip_[Youtracker]_by_avproh.avi
Формат : AVI
Формат/Информация : Audio Video Interleave
Размер файла : 1,46 Гбайт
Продолжительность : 1 ч. 15 м.
Общий поток : 2788 Кбит/сек
Программа кодирования : VirtualDubMod 1.5.10.3 (build 2550/release)
Библиотека кодирования : VirtualDubMod build 2550/release

Видео
Идентификатор : 0
Формат : MPEG-4 Visual
Профиль формата : Advanced Simple@L5
Параметр BVOP формата : 1
Параметр QPel формата : Нет
Параметр GMC формата : Без точки перехода
Параметр матрицы формата : Выборочная
Идентификатор кодека : XVID
Идентификатор кодека/Подсказка : XviD
Продолжительность : 1 ч. 15 м.
Битрейт : 1484 Кбит/сек
Ширина : 704 пикселя
Высота : 384 пикселя
Соотношение сторон : 1,85:1
Частота кадров : 25,000 кадров/сек
Цветовое пространство : YUV
Субдискретизация насыщенности : 4:2:0
Битовая глубина : 8 бит
Тип развёртки : Прогрессивная
Метод сжатия : С потерями
Бит/(Пиксели*Кадры) : 0.220
Размер потока : 798 Мбайт (53%)
Библиотека кодирования : XviD 65

Аудио #1
Идентификатор : 1
Формат : AC-3
Формат/Информация : Audio Coding 3
Профиль формата : Dolby Digital
Расширение режима : CM (complete main)
Параметр Endianness формата : Big
Идентификатор кодека : 2000
Продолжительность : 1 ч. 15 м.
Вид битрейта : Постоянный
Битрейт : 192 Кбит/сек
Каналы : 2 канала
Расположение каналов : Front: L R
Частота : 48,0 КГц
Битовая глубина : 16 бит
Метод сжатия : С потерями
Размер потока : 103 Мбайт (7%)
Выравнивание : Разделение по промежуткам
Продолжительность промежутка : 40 мс. (1,00 видеокадр)
Время предзагрузки промежутка : 500 мс.

Аудио #2
Идентификатор : 2
Формат : AC-3
Формат/Информация : Audio Coding 3
Расширение режима : CM (complete main)
Параметр Endianness формата : Big
Идентификатор кодека : 2000
Продолжительность : 1 ч. 15 м.
Вид битрейта : Постоянный
Битрейт : 448 Кбит/сек
Каналы : 6 каналов
Расположение каналов : Front: L C R, Side: L R, LFE
Частота : 48,0 КГц
Битовая глубина : 16 бит
Метод сжатия : С потерями
Размер потока : 241 Мбайт (16%)
Выравнивание : Разделение по промежуткам
Продолжительность промежутка : 40 мс. (1,00 видеокадр)
Время предзагрузки промежутка : 500 мс.

Аудио #3
Идентификатор : 3
Формат : AC-3
Формат/Информация : Audio Coding 3
Расширение режима : CM (complete main)
Параметр Endianness формата : Big
Идентификатор кодека : 2000
Продолжительность : 1 ч. 15 м.
Вид битрейта : Постоянный
Битрейт : 192 Кбит/сек
Каналы : 2 канала
Расположение каналов : Front: L R
Частота : 48,0 КГц
Битовая глубина : 16 бит
Метод сжатия : С потерями
Размер потока : 103 Мбайт (7%)
Выравнивание : Разделение по промежуткам
Продолжительность промежутка : 40 мс. (1,00 видеокадр)
Время предзагрузки промежутка : 500 мс.

Аудио #4
Идентификатор : 4
Формат : AC-3
Формат/Информация : Audio Coding 3
Расширение режима : CM (complete main)
Параметр Endianness формата : Big
Идентификатор кодека : 2000
Продолжительность : 1 ч. 15 м.
Вид битрейта : Постоянный
Битрейт : 448 Кбит/сек
Каналы : 6 каналов
Расположение каналов : Front: L C R, Side: L R, LFE
Частота : 48,0 КГц
Битовая глубина : 16 бит
Метод сжатия : С потерями
Размер потока : 241 Мбайт (16%)
Выравнивание : Разделение по промежуткам
Продолжительность промежутка : 40 мс. (1,00 видеокадр)
Время предзагрузки промежутка : 500 мс.



Скачать Инспектор.Гаджет.Inspector.Gadget.(Дэвид.Келлогг).[1999.фантастика.боевик.комедия.приключения.семейный.DVDRip].[Dub]+[MVO]+[AVO]+[Оригинал]+[Sub].torrent без регистрации
Золото ЗОЛОТАЯ РАЗДАЧА! СКАЧАННОЕ НЕ ЗАСЧИТЫВАЕТСЯ! Золото
Дата: Зарегистрирован   [ Тип: внутренний ] Как тут cкачать?
MAGNET ссылка
MAGNET ссылка


Скачать .torrent

16 KB

Статус: проверено DHT
Скачан: торрент - 143 раз, раздача полностью - 142 раз
Размер: 1,46 GB
Оценка:  5 (Голосов: 1)
Поблагодарили: 2
Поделиться ссылкой на эту раздачу с друзьями:
В контактеFacebookОдноклассникиTwitterLivejournalМой МирLiveinternet
 

 
Показать сообщения:    


Вы не можете начинать темы
Вы не можете отвечать на сообщения
Вы не можете редактировать свои сообщения
Вы не можете удалять свои сообщения
Вы не можете голосовать в опросах
Вы не можете прикреплять файлы к сообщениям
Вы можете скачивать файлы