Loading...
Error

Скачать Удар таэквондо / When Taekwondo Strikes (Хуанг Фенг) [1973, боевые искусства, DVDRip] [VO] торрент без регистрации

 
Статистика раздачи
Размер:  1,37 GB   |    Скачан:  129 раз
Сидов:  1  [  0 KB/s  ]  
 
Автор Сообщение

Marsianka

[] 


Удар таэквондо / When Taekwondo Strikes / Tai quan zhen jiu zhou

Год выхода: 1973
Жанр: боевые искусства
Режиссер: Хуанг Фенг / Feng Huang
В ролях: Джун Ри,Саммо Хунг,Анжела Мао,Картер Вонг,Кендзи Казума,Энни Уинстон

О фильме: Во времена, когда Корея была оккупирована японцами возникла тайная японская организация Бансан, для борьбы с корейскими повстанцами. Глава повстанцев Ли Чен Тун (величайший мастер Айкидо) действовал под маской священника в католической церкви, где начал обучать Таэквондо племянницу настоятеля. Однажды, один из повстанцев, Ким попытался найти убежище в этой церкви. Бансан, шедший по его следам, поймал Ли и пытал его. Ким спасся благодаря Мэри. Чтобы его спасти Ким, Мэри и китаянка Хуан Ли Чу (мастер Таэквондо) объединили свои усилия и атаковали штаб-квартиру Бансана. Ли был спасён, а Корея объединилась в борьбе против захватчиков



Выпущено: Гонконг
Продолжительность: 01:31:12
Перевод:
Профессиональный (одноголосый, закадровый)

Кодек: XviD - Совместимо с бытовыми DVD-плеерами
Качество: DVDRip (За исходный DVD-5 Спасибо loxaba)
Видео: 720x304 (2.37:1), 29.970 fps, XviD build 65 ~1883 kbps avg, 0.29 bit/pixel
Аудио: 48 kHz, AC3 Dolby Digital, 2/0 (L,R) ch, ~256 kbps

Общее
Полное имя: Ydar.Taekwondo.1973.XviD.DVDRip.VO_SergV.avi
Формат : AVI
Формат/Информация : Audio Video Interleave
Размер файла : 1,37 Гбайт
Продолжительность : 1 ч. 31 м.
Общий поток : 2151 Кбит/сек
Название фильма : Ydar.Taekwondo.1973.XviD.DVDRip.VO_SergV
Программа кодирования : VirtualDubMod 1.5.10.3 | www.virtualdub-fr.org || (build 2550/release)
Примечание : Рип от SergV

Видео
Идентификатор : 0
Формат : MPEG-4 Visual
Профиль формата : Advanced Simple@L5
Параметр BVOP формата : 2
Параметр QPel формата : Нет
Параметр GMC формата : Без точки перехода
Параметр матрицы формата : Default (MPEG)
Идентификатор кодека : XVID
Идентификатор кодека/Подсказка : XviD
Продолжительность : 1 ч. 31 м.
Битрейт : 1884 Кбит/сек
Ширина : 720 пикселей
Высота : 304 пикселя
Соотношение сторон : 2,35:1
Частота кадров : 29,970 кадров/сек
Цветовое пространство : YUV
Субдискретизация насыщенности : 4:2:0
Битовая глубина : 8 бит
Тип развёртки : Прогрессивная
Метод сжатия : С потерями
Бит/(Пиксели*Кадры) : 0.287
Размер потока : 1,20 Гбайт (88%)
Библиотека кодирования : XviD 65

Аудио
Идентификатор : 1
Формат : AC-3
Формат/Информация : Audio Coding 3
Расширение режима : CM (complete main)
Параметр Endianness формата : Big
Идентификатор кодека : 2000
Продолжительность : 1 ч. 31 м.
Вид битрейта : Постоянный
Битрейт : 256 Кбит/сек
Каналы : 2 канала
Расположение каналов : Front: L R
Частота : 48,0 КГц
Битовая глубина : 16 бит
Метод сжатия : С потерями
Размер потока : 167 Мбайт (12%)
Выравнивание : Разделение по промежуткам
Продолжительность промежутка : 33 мс. (1,00 видеокадр)
Время предзагрузки промежутка : 500 мс.
Релиз от:



Скачать Удар.таэквондо.When.Taekwondo.Strikes.(Хуанг.Фенг).[1973.боевые.искусства.DVDRip].[VO].torrent без регистрации
Золото ЗОЛОТАЯ РАЗДАЧА! СКАЧАННОЕ НЕ ЗАСЧИТЫВАЕТСЯ! Золото
Дата: Зарегистрирован   [ Тип: внутренний ] Как тут cкачать?
MAGNET ссылка
MAGNET ссылка


Скачать .torrent

14 KB

Статус: проверено DHT
Скачан: торрент - 129 раз, раздача полностью - 16 раз
Размер: 1,37 GB
Оценка:  - (Голосов: 0)
Поблагодарили: 0
Поделиться ссылкой на эту раздачу с друзьями:
В контактеFacebookОдноклассникиTwitterLivejournalМой МирLiveinternet
 

 
Показать сообщения:    


Вы не можете начинать темы
Вы не можете отвечать на сообщения
Вы не можете редактировать свои сообщения
Вы не можете удалять свои сообщения
Вы не можете голосовать в опросах
Вы не можете прикреплять файлы к сообщениям
Вы можете скачивать файлы