Loading...
Error

Скачать Компаньоны / Franklin & Bash (Сезон 2, эпизод 09-10 из 10) (Джейсон Энслер, Стив Робин) [2012 г., Комедия, WEB-DLRip] [MVO] (To4ka) торрент без регистрации

 
Статистика раздачи
Размер:  901 MB   |    Скачан:  160 раз
Сидов:  1  [  0 KB/s  ]  
 
Автор Сообщение

leon030982

[] 

Компаньоны / Franklin & Bash (Сезон 2, эпизод 09-10 из 10)

Год выпуска: 2012
Страна: США

Жанр: Комедия
Продолжительность: ~ 45 мин серия
Перевод: Любительский многоголосый закадровый(To4ka)
Субтитры: Нет
Режиссёр: Джейсон Энслер, Стив Робин
В ролях:
Брекин Мейер, Стефани Карпентьери, Клэр Коффи, Майкл Ковингтон, Карина Родригез, Марк-Пол Госселаар, Рид Даймонд, Дэна Дэвис, Гарсель Бове, Кумэйл Нанджиани
Описание:
Двое молодых, уличных адвоката, после выигрыша крупного дела над легендарной юридической фирмой были приняты на работу её основателем, однако из-за его неэтичного поведения адвокаты постоянно оказываются в неприятностях.


Качество: WEB-DLRip
Формат: AVI

Видео кодек: XviD
Аудио кодек: MP3
Видео: MPEG4, XviD, 720x400 (16/9), 23.976 fps, 1 219 Kbps (0.177 bit/pixel)
Аудио Rus: MP3, 48.0 KHz, 2 ch, 128 Kbps, CBR
Аудио Eng: MP3, 48.0 KHz, 2 ch, 128 Kbps, CBR
Релиз: по заказу Seasonvar
Роли озвучивали: Александр Нелюбин, Андрей Хомяков, Ирина Грачева и Марина Комчарукова
Перевод на русский язык: Оксана Графутко

Семпл:http://multi-up.com/720757
General
Complete name : I:\ЗАКАЧКИ\Франклин и Бэш s02 To4ka\Franklin.and.Bash.s02e01.WEB-DLRip.Rus.Eng.[To4ka.TV].avi
Format : AVI
Format/Info : Audio Video Interleave
File size : 450 MiB
Duration : 42mn 15s
Overall bit rate : 1 490 Kbps
Writing application : VirtualDubModRus 1.5.10.2 (build 2542/release)
Writing library : VirtualDubMod build 2542/release
Video
ID : 0
Format : MPEG-4 Visual
Format profile : Advanced Simple@L5
Format settings, BVOP : 1
Format settings, QPel : No
Format settings, GMC : No warppoints
Format settings, Matrix : Default (H.263)
Codec ID : XVID
Codec ID/Hint : XviD
Duration : 42mn 15s
Bit rate : 1 219 Kbps
Width : 720 pixels
Height : 400 pixels
Display aspect ratio : 16:9
Frame rate : 23.976 fps
Color space : YUV
Chroma subsampling : 4:2:0
Bit depth : 8 bits
Scan type : Progressive
Compression mode : Lossy
Bits/(Pixel*Frame) : 0.177
Stream size : 369 MiB (82%)
Writing library : XviD 1.2.1 (UTC 2008-12-04)
Audio #1
ID : 1
Format : MPEG Audio
Format version : Version 1
Format profile : Layer 3
Mode : Joint stereo
Mode extension : MS Stereo
Codec ID : 55
Codec ID/Hint : MP3
Duration : 42mn 15s
Bit rate mode : Constant
Bit rate : 128 Kbps
Channel(s) : 2 channels
Sampling rate : 48.0 KHz
Compression mode : Lossy
Stream size : 38.7 MiB (9%)
Alignment : Aligned on interleaves
Interleave, duration : 42 ms (1.00 video frame)
Interleave, preload duration : 504 ms
Audio #2
ID : 2
Format : MPEG Audio
Format version : Version 1
Format profile : Layer 3
Codec ID : 55
Codec ID/Hint : MP3
Duration : 42mn 15s
Bit rate mode : Constant
Bit rate : 128 Kbps
Channel(s) : 2 channels
Sampling rate : 48.0 KHz
Compression mode : Lossy
Stream size : 38.7 MiB (9%)
Alignment : Split accross interleaves
Interleave, duration : 42 ms (1.00 video frame)
Interleave, preload duration : 500 ms



Скачать Компаньоны.Franklin.&.Bash.(Сезон.2.эпизод.09-10.из.10).(Джейсон.Энслер.Стив.Робин).[2012.г.Комедия.WEB-DLRip].[MVO].(To4ka).torrent без регистрации
Золото ЗОЛОТАЯ РАЗДАЧА! СКАЧАННОЕ НЕ ЗАСЧИТЫВАЕТСЯ! Золото
Дата: Зарегистрирован   [ Тип: внутренний ] Как тут cкачать?
MAGNET ссылка
MAGNET ссылка


Скачать .torrent

18 KB

Статус: проверено DHT
Скачан: торрент - 160 раз, раздача полностью - 0 раз
Размер: 901 MB
Оценка:  - (Голосов: 0)
Поблагодарили: 0
Поделиться ссылкой на эту раздачу с друзьями:
В контактеFacebookОдноклассникиTwitterLivejournalМой МирLiveinternet
 

 
Показать сообщения:    


Вы не можете начинать темы
Вы не можете отвечать на сообщения
Вы не можете редактировать свои сообщения
Вы не можете удалять свои сообщения
Вы не можете голосовать в опросах
Вы не можете прикреплять файлы к сообщениям
Вы можете скачивать файлы