Loading...
Error

Скачать Побег из тюрьмы / Prison Break / Сезон 3 / (01-13 из 13) (Пол Шойринг) [2007-2009, боевик, драма, BDRip] [720p] [Dub (REN-TV)] торрент без регистрации

 
Статистика раздачи
Размер:  18,71 GB   |    Скачан:  195 раз
Сидов:  1  [  0 KB/s  ]  
 
Автор Сообщение

МихаНЕзатор

[] 

Побег из тюрьмы - Третий сезон
Prison Break - Three Season
Год выпуска
: 2007
Страна: США | USA
Жанр: боевик, драма
Продолжительность: 13 эпизодов по ~44 минуты
Перевод: Полное дублирование, [REN-TV]
Русские субтитры: нет
Режиссёр: Пол Шеринг /Paul Scheuring

В ролях: Доминик Пурселл/Dominic Purcell, Вентворт Миллер/Wentworth Miller, Роберт Нэппер/Robert Knepper, Амори Ноласко/Amaury Nolasco, Сара Уэйн Коллис/Sarah Wayne Callies, Уэйд Уильямс/Wade Williams, Уильям Фихтнер/William Fichtner, Пол Эделстин/Paul Adelstein, Маршалл Эллман/Marshall Allman, Рокмонд Данбар/Rockmond Dunbar

Описание: Проектировщик тюрем намеренно совершает преступление и попадает в одну из построенных им зон с целью помочь несправедливо осужденному брату избежать смертного приговора.
Майкл Скофилд отчаявшийся человек в отчаянных обстоятельствах: его родной брат Линкольн приговорен к смертной казни за убийство и пребывает в камере смертников в одной из самых строго охраняемых тюрем страны. Несмотря на многочисленные улики, свидетельствующие не в пользу брата, Майкл убежден, что тот невиновен. Понимая, что каждый день приближает исполнение приговора, он инсценирует ограбление банка и, таким образом, попадает в ту же зону, веря, что там он сможет организовать их совместный побег и потом, на свободе, доказать, что брат стал жертвой заговора.
Несмотря на внешнюю безумность затеянного, он единственный, кому по силам осуществить этот план. Мало кому известно, что именно он несколькими годами ранее разработал проект этой тюрьмы и ему, как никому другому, известны все мельчайшие детали, как внешние, так и скрытые от глаз, особенностей ее устройства.
«Побег» исполненная напряжения, изобилующая неожиданными поворотами сюжета история осуществления отчаянного плана вопреки противоборству обстоятельств.
По сфабрикованному обвинению Майкл попадает в панамскую тюрьму Сонна зону, где после бунта заключенных больше не осталось надзирателей, а за порядком следит могущественный наркобарон. Как выяснилось, Компания хочет, чтобы Скофилд организовал побег для таинственного Джеймса Вистлера рыбака, чья свобода важна настолько, что в заложниках у правительства оказываются Сара и Эл Джей. На разработку плана и претворения его в жизнь Майклу отведена всего неделя.



Качество: BDRip
Формат: MKV
Видео кодек: H.264
Аудио кодек: AC3
Видео: 1280х720, ~4200 kbps, 23.976 fps
Аудио: AC3 48kHz 5.1ch 384kbps

General
Unique ID : 179149954409914769766801744773768945683 (0x86C706B34C3847E6B6F3653C4EDE2013)
Complete name : D:Docume and SettingsAdminМои документыDownloadsPrison Break.Season.3.BDRip_720pPrison Break.s03.e01.720p.BDRip.mkv
Format : Matroska
Format version : Version 1
File size : 1.44 GiB
Duration : 43mn 5s
Overall bit rate : 4 781 Kbps
Encoded date : UTC 2010-04-02 19:18:54
Writing application : mkvmerge v2.2.0 ('Turn It On Again') built on Mar 4 2008 12:58:26
Writing library : libebml v0.7.7 + libmatroska v0.8.1

Video
ID : 1
Format : AVC
Format/Info : Advanced Video Codec
Format profile : High@L3.1
Format settings, CABAC : Yes
Format settings, ReFrames : 5 frames
Codec ID : V_MPEG4/ISO/AVC
Duration : 43mn 5s
Bit rate : 4 395 Kbps
Width : 1 280 pixels
Height : 720 pixels
Display aspect ratio : 16:9
Frame rate : 23.976 fps
Color space : YUV
Chroma subsampling : 4:2:0
Bit depth : 8 bits
Scan type : Progressive
Bits/(Pixel*Frame) : 0.199
Stream size : 1.29 GiB (90%)
Title : Prison Break.s03.e01.2007
Writing library : x264 core 80 r1376M 3feaec2
Encoding settings : cabac=1 / ref=5 / deblock=1:-1:-1 / analyse=0x3:0x133 / me=hex / subme=7 / psy=1 / psy_rd=1.0:0.0 / mixed_ref=1 / me_range=16 / chroma_me=1 / trellis=2 / 8x8dct=1 / cqm=0 / deadzone=21,11 / fast_pskip=0 / chroma_qp_offset=-2 / threads=6 / sliced_threads=0 / nr=0 / decimate=1 / mbaff=0 / constrained_intra=0 / bframes=3 / b_pyramid=0 / b_adapt=2 / b_bias=0 / direct=1 / wpredb=1 / wpredp=2 / keyint=250 / keyint_min=25 / scenecut=40 / rc_lookahead=40 / rc=2pass / mbtree=1 / bitrate=4395 / ratetol=1.0 / qcomp=0.60 / qpmin=10 / qpmax=51 / qpstep=4 / cplxblur=20.0 / qblur=0.5 / ip_ratio=1.40 / aq=1:1.00
Language : English
Default : Yes
Forced : No

Audio
ID : 2
Format : AC-3
Format/Info : Audio Coding 3
Mode extension : CM (complete main)
Format settings, Endianness : Big
Codec ID : A_AC3
Duration : 43mn 5s
Bit rate mode : Constant
Bit rate : 384 Kbps
Channel(s) : 6 channels
Channel positions : Front: L C R, Side: L R, LFE
Sampling rate : 48.0 KHz
Bit depth : 16 bits
Compression mode : Lossy
Stream size : 118 MiB (8%)
Title : AC3 5.1ch 384kbps (Дубляж, Ren-TV)
Language : Russian
Default : Yes
Forced : No

General
Unique ID : 212669160623630737414700012132533450219 (0x9FFE9728FE911B40850F684ECE76B5EB)
Complete name : D:Docum and SettingsAdminМои документыDownloadsPrison Break.Season.3.BDRip_720pPrison Break.s03.e02.720p.BDRip.mkv
Format : Matroska
Format version : Version 1
File size : 1.44 GiB
Duration : 43mn 53s
Overall bit rate : 4 694 Kbps
Encoded date : UTC 2010-04-15 15:07:50
Writing application : mkvmerge v2.2.0 ('Turn It On Again') built on Mar 4 2008 12:58:26
Writing library : libebml v0.7.7 + libmatroska v0.8.1

Video
ID : 1
Format : AVC
Format/Info : Advanced Video Codec
Format profile : High@L3.1
Format settings, CABAC : Yes
Format settings, ReFrames : 5 frames
Codec ID : V_MPEG4/ISO/AVC
Duration : 43mn 53s
Bit rate : 4 308 Kbps
Width : 1 280 pixels
Height : 720 pixels
Display aspect ratio : 16:9
Frame rate : 23.976 fps
Color space : YUV
Chroma subsampling : 4:2:0
Bit depth : 8 bits
Scan type : Progressive
Bits/(Pixel*Frame) : 0.195
Stream size : 1.29 GiB (90%)
Title : Prison Break.s03.e02.2007
Writing library : x264 core 80 r1376M 3feaec2
Encoding settings : cabac=1 / ref=5 / deblock=1:-1:-1 / analyse=0x3:0x133 / me=hex / subme=7 / psy=1 / psy_rd=1.0:0.0 / mixed_ref=1 / me_range=16 / chroma_me=1 / trellis=2 / 8x8dct=1 / cqm=0 / deadzone=21,11 / fast_pskip=0 / chroma_qp_offset=-2 / threads=6 / sliced_threads=0 / nr=0 / decimate=1 / mbaff=0 / constrained_intra=0 / bframes=3 / b_pyramid=0 / b_adapt=2 / b_bias=0 / direct=1 / wpredb=1 / wpredp=2 / keyint=250 / keyint_min=25 / scenecut=40 / rc_lookahead=40 / rc=2pass / mbtree=1 / bitrate=4308 / ratetol=1.0 / qcomp=0.60 / qpmin=10 / qpmax=51 / qpstep=4 / cplxblur=20.0 / qblur=0.5 / ip_ratio=1.40 / aq=1:1.00
Language : English
Default : Yes
Forced : No

Audio
ID : 2
Format : AC-3
Format/Info : Audio Coding 3
Mode extension : CM (complete main)
Format settings, Endianness : Big
Codec ID : A_AC3
Duration : 43mn 53s
Bit rate mode : Constant
Bit rate : 384 Kbps
Channel(s) : 6 channels
Channel positions : Front: L C R, Side: L R, LFE
Sampling rate : 48.0 KHz
Bit depth : 16 bits
Compression mode : Lossy
Stream size : 121 MiB (8%)
Title : AC3 5.1ch 384kbps (Дубляж, Ren-TV)
Language : Russian
Default : Yes
Forced : No

General
Unique ID : 247792054130325512922841940893378036569 (0xBA6B03820B8FA62A809A52F2F2D44359)
Complete name : D:Docume and SettingsAdminМои документыDownloadsPrison Break.Season.3.BDRip_720pPrison Break.s03.e03.720p.BDRip.mkv
Format : Matroska
Format version : Version 1
File size : 1.44 GiB
Duration : 44mn 0s
Overall bit rate : 4 682 Kbps
Encoded date : UTC 2010-04-16 01:24:55
Writing application : mkvmerge v2.2.0 ('Turn It On Again') built on Mar 4 2008 12:58:26
Writing library : libebml v0.7.7 + libmatroska v0.8.1

Video
ID : 1
Format : AVC
Format/Info : Advanced Video Codec
Format profile : High@L3.1
Format settings, CABAC : Yes
Format settings, ReFrames : 5 frames
Codec ID : V_MPEG4/ISO/AVC
Duration : 44mn 0s
Bit rate : 4 295 Kbps
Width : 1 280 pixels
Height : 720 pixels
Display aspect ratio : 16:9
Frame rate : 23.976 fps
Color space : YUV
Chroma subsampling : 4:2:0
Bit depth : 8 bits
Scan type : Progressive
Bits/(Pixel*Frame) : 0.194
Stream size : 1.29 GiB (90%)
Title : Prison Break.s03.e03.2007
Writing library : x264 core 80 r1376M 3feaec2
Encoding settings : cabac=1 / ref=5 / deblock=1:-1:-1 / analyse=0x3:0x133 / me=hex / subme=7 / psy=1 / psy_rd=1.0:0.0 / mixed_ref=1 / me_range=16 / chroma_me=1 / trellis=2 / 8x8dct=1 / cqm=0 / deadzone=21,11 / fast_pskip=0 / chroma_qp_offset=-2 / threads=6 / sliced_threads=0 / nr=0 / decimate=1 / mbaff=0 / constrained_intra=0 / bframes=3 / b_pyramid=0 / b_adapt=2 / b_bias=0 / direct=1 / wpredb=1 / wpredp=2 / keyint=250 / keyint_min=25 / scenecut=40 / rc_lookahead=40 / rc=2pass / mbtree=1 / bitrate=4295 / ratetol=1.0 / qcomp=0.60 / qpmin=10 / qpmax=51 / qpstep=4 / cplxblur=20.0 / qblur=0.5 / ip_ratio=1.40 / aq=1:1.00
Language : English
Default : Yes
Forced : No

Audio
ID : 2
Format : AC-3
Format/Info : Audio Coding 3
Mode extension : CM (complete main)
Format settings, Endianness : Big
Codec ID : A_AC3
Duration : 44mn 0s
Bit rate mode : Constant
Bit rate : 384 Kbps
Channel(s) : 6 channels
Channel positions : Front: L C R, Side: L R, LFE
Sampling rate : 48.0 KHz
Bit depth : 16 bits
Compression mode : Lossy
Stream size : 121 MiB (8%)
Title : AC3 5.1ch 384kbps (Дубляж, Ren-TV)
Language : Russian
Default : Yes
Forced : No

General
Unique ID : 185901730415821101312981213420293509196 (0x8BDB5EF5685AB6FCACDF15FAF970D04C)
Complete name : D:Docume and SettingsAdminМои документыDownloadsPrison Break.Season.3.BDRip_720pPrison Break.s03.e04.720p.BDRip.mkv
Format : Matroska
Format version : Version 1
File size : 1.44 GiB
Duration : 43mn 59s
Overall bit rate : 4 684 Kbps
Encoded date : UTC 2010-04-16 11:41:25
Writing application : mkvmerge v2.2.0 ('Turn It On Again') built on Mar 4 2008 12:58:26
Writing library : libebml v0.7.7 + libmatroska v0.8.1

Video
ID : 1
Format : AVC
Format/Info : Advanced Video Codec
Format profile : High@L3.1
Format settings, CABAC : Yes
Format settings, ReFrames : 5 frames
Codec ID : V_MPEG4/ISO/AVC
Duration : 43mn 59s
Bit rate : 4 297 Kbps
Width : 1 280 pixels
Height : 720 pixels
Display aspect ratio : 16:9
Frame rate : 23.976 fps
Color space : YUV
Chroma subsampling : 4:2:0
Bit depth : 8 bits
Scan type : Progressive
Bits/(Pixel*Frame) : 0.194
Stream size : 1.29 GiB (90%)
Title : Prison Break.s03.e04.2007
Writing library : x264 core 80 r1376M 3feaec2
Encoding settings : cabac=1 / ref=5 / deblock=1:-1:-1 / analyse=0x3:0x133 / me=hex / subme=7 / psy=1 / psy_rd=1.0:0.0 / mixed_ref=1 / me_range=16 / chroma_me=1 / trellis=2 / 8x8dct=1 / cqm=0 / deadzone=21,11 / fast_pskip=0 / chroma_qp_offset=-2 / threads=6 / sliced_threads=0 / nr=0 / decimate=1 / mbaff=0 / constrained_intra=0 / bframes=3 / b_pyramid=0 / b_adapt=2 / b_bias=0 / direct=1 / wpredb=1 / wpredp=2 / keyint=250 / keyint_min=25 / scenecut=40 / rc_lookahead=40 / rc=2pass / mbtree=1 / bitrate=4297 / ratetol=1.0 / qcomp=0.60 / qpmin=10 / qpmax=51 / qpstep=4 / cplxblur=20.0 / qblur=0.5 / ip_ratio=1.40 / aq=1:1.00
Language : English
Default : Yes
Forced : No

Audio
ID : 2
Format : AC-3
Format/Info : Audio Coding 3
Mode extension : CM (complete main)
Format settings, Endianness : Big
Codec ID : A_AC3
Duration : 43mn 59s
Bit rate mode : Constant
Bit rate : 384 Kbps
Channel(s) : 6 channels
Channel positions : Front: L C R, Side: L R, LFE
Sampling rate : 48.0 KHz
Bit depth : 16 bits
Compression mode : Lossy
Stream size : 121 MiB (8%)
Title : AC3 5.1ch 384kbps (Дубляж, Ren-TV)
Language : Russian
Default : Yes
Forced : No

General
Unique ID : 228953766481301903225619254449094832342 (0xAC3EE437AEE629FBB769ECBA1224B0D6)
Complete name : D:Docume and SettingsAdminМои документыDownloadsPrison Break.Season.3.BDRip_720pPrison Break.s03.e05.720p.BDRip.mkv
Format : Matroska
Format version : Version 1
File size : 1.44 GiB
Duration : 44mn 1s
Overall bit rate : 4 681 Kbps
Encoded date : UTC 2010-04-17 00:38:44
Writing application : mkvmerge v2.2.0 ('Turn It On Again') built on Mar 4 2008 12:58:26
Writing library : libebml v0.7.7 + libmatroska v0.8.1

Video
ID : 1
Format : AVC
Format/Info : Advanced Video Codec
Format profile : High@L3.1
Format settings, CABAC : Yes
Format settings, ReFrames : 5 frames
Codec ID : V_MPEG4/ISO/AVC
Duration : 44mn 1s
Bit rate : 4 296 Kbps
Width : 1 280 pixels
Height : 720 pixels
Display aspect ratio : 16:9
Frame rate : 23.976 fps
Color space : YUV
Chroma subsampling : 4:2:0
Bit depth : 8 bits
Scan type : Progressive
Bits/(Pixel*Frame) : 0.194
Stream size : 1.29 GiB (90%)
Title : Prison Break.s03.e05.2007
Writing library : x264 core 80 r1376M 3feaec2
Encoding settings : cabac=1 / ref=5 / deblock=1:-1:-1 / analyse=0x3:0x133 / me=hex / subme=7 / psy=1 / psy_rd=1.0:0.0 / mixed_ref=1 / me_range=16 / chroma_me=1 / trellis=2 / 8x8dct=1 / cqm=0 / deadzone=21,11 / fast_pskip=0 / chroma_qp_offset=-2 / threads=6 / sliced_threads=0 / nr=0 / decimate=1 / mbaff=0 / constrained_intra=0 / bframes=3 / b_pyramid=0 / b_adapt=2 / b_bias=0 / direct=1 / wpredb=1 / wpredp=2 / keyint=250 / keyint_min=25 / scenecut=40 / rc_lookahead=40 / rc=2pass / mbtree=1 / bitrate=4296 / ratetol=1.0 / qcomp=0.60 / qpmin=10 / qpmax=51 / qpstep=4 / cplxblur=20.0 / qblur=0.5 / ip_ratio=1.40 / aq=1:1.00
Language : English
Default : Yes
Forced : No

Audio
ID : 2
Format : AC-3
Format/Info : Audio Coding 3
Mode extension : CM (complete main)
Format settings, Endianness : Big
Codec ID : A_AC3
Duration : 44mn 1s
Bit rate mode : Constant
Bit rate : 384 Kbps
Channel(s) : 6 channels
Channel positions : Front: L C R, Side: L R, LFE
Sampling rate : 48.0 KHz
Bit depth : 16 bits
Compression mode : Lossy
Stream size : 121 MiB (8%)
Title : AC3 5.1ch 384kbps (Дубляж, Ren-TV)
Language : Russian
Default : Yes
Forced : No

General
Unique ID : 239833813113796749726931162207493792250 (0xB46E4FEEA61EC1D19B6BCEAB71A7A1FA)
Complete name : D:Docume and SettingsAdminМои документыDownloadsPrison Break.Season.3.BDRip_720pPrison Break.s03.e06.720p.BDRip.mkv
Format : Matroska
Format version : Version 1
File size : 1.44 GiB
Duration : 44mn 1s
Overall bit rate : 4 680 Kbps
Encoded date : UTC 2010-04-17 04:07:29
Writing application : mkvmerge v2.2.0 ('Turn It On Again') built on Mar 4 2008 12:58:26
Writing library : libebml v0.7.7 + libmatroska v0.8.1

Video
ID : 1
Format : AVC
Format/Info : Advanced Video Codec
Format profile : High@L3.1
Format settings, CABAC : Yes
Format settings, ReFrames : 5 frames
Codec ID : V_MPEG4/ISO/AVC
Duration : 44mn 1s
Bit rate : 4 294 Kbps
Width : 1 280 pixels
Height : 720 pixels
Display aspect ratio : 16:9
Frame rate : 23.976 fps
Color space : YUV
Chroma subsampling : 4:2:0
Bit depth : 8 bits
Scan type : Progressive
Bits/(Pixel*Frame) : 0.194
Stream size : 1.29 GiB (90%)
Title : Prison Break.s03.e06.2007
Writing library : x264 core 80 r1376M 3feaec2
Encoding settings : cabac=1 / ref=5 / deblock=1:-1:-1 / analyse=0x3:0x133 / me=hex / subme=7 / psy=1 / psy_rd=1.0:0.0 / mixed_ref=1 / me_range=16 / chroma_me=1 / trellis=2 / 8x8dct=1 / cqm=0 / deadzone=21,11 / fast_pskip=0 / chroma_qp_offset=-2 / threads=6 / sliced_threads=0 / nr=0 / decimate=1 / mbaff=0 / constrained_intra=0 / bframes=3 / b_pyramid=0 / b_adapt=2 / b_bias=0 / direct=1 / wpredb=1 / wpredp=2 / keyint=250 / keyint_min=25 / scenecut=40 / rc_lookahead=40 / rc=2pass / mbtree=1 / bitrate=4294 / ratetol=1.0 / qcomp=0.60 / qpmin=10 / qpmax=51 / qpstep=4 / cplxblur=20.0 / qblur=0.5 / ip_ratio=1.40 / aq=1:1.00
Language : English
Default : Yes
Forced : No

Audio
ID : 2
Format : AC-3
Format/Info : Audio Coding 3
Mode extension : CM (complete main)
Format settings, Endianness : Big
Codec ID : A_AC3
Duration : 44mn 1s
Bit rate mode : Constant
Bit rate : 384 Kbps
Channel(s) : 6 channels
Channel positions : Front: L C R, Side: L R, LFE
Sampling rate : 48.0 KHz
Bit depth : 16 bits
Compression mode : Lossy
Stream size : 121 MiB (8%)
Title : AC3 5.1ch 384kbps (Дубляж, Ren-TV)
Language : Russian
Default : Yes
Forced : No

General
Unique ID : 235850373832090731908657924494376095480 (0xB16F21365DC96176B62B66BFC3E0CEF8)
Complete name : D:Documen and SettingsAdminМои документыDownloadsPrison Break.Season.3.BDRip_720pPrison Break.s03.e07.720p.BDRip.mkv
Format : Matroska
Format version : Version 1
File size : 1.44 GiB
Duration : 44mn 0s
Overall bit rate : 4 682 Kbps
Encoded date : UTC 2010-04-17 12:56:44
Writing application : mkvmerge v2.2.0 ('Turn It On Again') built on Mar 4 2008 12:58:26
Writing library : libebml v0.7.7 + libmatroska v0.8.1

Video
ID : 1
Format : AVC
Format/Info : Advanced Video Codec
Format profile : High@L3.1
Format settings, CABAC : Yes
Format settings, ReFrames : 5 frames
Codec ID : V_MPEG4/ISO/AVC
Duration : 44mn 0s
Bit rate : 4 295 Kbps
Width : 1 280 pixels
Height : 720 pixels
Display aspect ratio : 16:9
Frame rate : 23.976 fps
Color space : YUV
Chroma subsampling : 4:2:0
Bit depth : 8 bits
Scan type : Progressive
Bits/(Pixel*Frame) : 0.194
Stream size : 1.29 GiB (90%)
Title : Prison Break.s03.e07.2007
Writing library : x264 core 80 r1376M 3feaec2
Encoding settings : cabac=1 / ref=5 / deblock=1:-1:-1 / analyse=0x3:0x133 / me=hex / subme=7 / psy=1 / psy_rd=1.0:0.0 / mixed_ref=1 / me_range=16 / chroma_me=1 / trellis=2 / 8x8dct=1 / cqm=0 / deadzone=21,11 / fast_pskip=0 / chroma_qp_offset=-2 / threads=6 / sliced_threads=0 / nr=0 / decimate=1 / mbaff=0 / constrained_intra=0 / bframes=3 / b_pyramid=0 / b_adapt=2 / b_bias=0 / direct=1 / wpredb=1 / wpredp=2 / keyint=250 / keyint_min=25 / scenecut=40 / rc_lookahead=40 / rc=2pass / mbtree=1 / bitrate=4295 / ratetol=1.0 / qcomp=0.60 / qpmin=10 / qpmax=51 / qpstep=4 / cplxblur=20.0 / qblur=0.5 / ip_ratio=1.40 / aq=1:1.00
Language : English
Default : Yes
Forced : No

Audio
ID : 2
Format : AC-3
Format/Info : Audio Coding 3
Mode extension : CM (complete main)
Format settings, Endianness : Big
Codec ID : A_AC3
Duration : 44mn 0s
Bit rate mode : Constant
Bit rate : 384 Kbps
Channel(s) : 6 channels
Channel positions : Front: L C R, Side: L R, LFE
Sampling rate : 48.0 KHz
Bit depth : 16 bits
Compression mode : Lossy
Stream size : 121 MiB (8%)
Title : AC3 5.1ch 384kbps (Дубляж, Ren-TV)
Language : Russian
Default : Yes
Forced : No

General
Unique ID : 253986301618330723820925675341585606918 (0xBF13FB7CEF18DA35B111F7345CBC6906)
Complete name : D:Documen and SettingsAdminМои документыDownloadsPrison Break.Season.3.BDRip_720pPrison Break.s03.e08.720p.BDRip.mkv
Format : Matroska
Format version : Version 1
File size : 1.44 GiB
Duration : 43mn 19s
Overall bit rate : 4 757 Kbps
Encoded date : UTC 2010-04-18 01:36:03
Writing application : mkvmerge v2.2.0 ('Turn It On Again') built on Mar 4 2008 12:58:26
Writing library : libebml v0.7.7 + libmatroska v0.8.1

Video
ID : 1
Format : AVC
Format/Info : Advanced Video Codec
Format profile : High@L3.1
Format settings, CABAC : Yes
Format settings, ReFrames : 5 frames
Codec ID : V_MPEG4/ISO/AVC
Duration : 43mn 19s
Bit rate : 4 372 Kbps
Width : 1 280 pixels
Height : 720 pixels
Display aspect ratio : 16:9
Frame rate : 23.976 fps
Color space : YUV
Chroma subsampling : 4:2:0
Bit depth : 8 bits
Scan type : Progressive
Bits/(Pixel*Frame) : 0.198
Stream size : 1.29 GiB (90%)
Title : Prison Break.s03.e08.2007
Writing library : x264 core 80 r1376M 3feaec2
Encoding settings : cabac=1 / ref=5 / deblock=1:-1:-1 / analyse=0x3:0x133 / me=hex / subme=7 / psy=1 / psy_rd=1.0:0.0 / mixed_ref=1 / me_range=16 / chroma_me=1 / trellis=2 / 8x8dct=1 / cqm=0 / deadzone=21,11 / fast_pskip=0 / chroma_qp_offset=-2 / threads=6 / sliced_threads=0 / nr=0 / decimate=1 / mbaff=0 / constrained_intra=0 / bframes=3 / b_pyramid=0 / b_adapt=2 / b_bias=0 / direct=1 / wpredb=1 / wpredp=2 / keyint=250 / keyint_min=25 / scenecut=40 / rc_lookahead=40 / rc=2pass / mbtree=1 / bitrate=4372 / ratetol=1.0 / qcomp=0.60 / qpmin=10 / qpmax=51 / qpstep=4 / cplxblur=20.0 / qblur=0.5 / ip_ratio=1.40 / aq=1:1.00
Language : English
Default : Yes
Forced : No

Audio
ID : 2
Format : AC-3
Format/Info : Audio Coding 3
Mode extension : CM (complete main)
Format settings, Endianness : Big
Codec ID : A_AC3
Duration : 43mn 19s
Bit rate mode : Constant
Bit rate : 384 Kbps
Channel(s) : 6 channels
Channel positions : Front: L C R, Side: L R, LFE
Sampling rate : 48.0 KHz
Bit depth : 16 bits
Compression mode : Lossy
Stream size : 119 MiB (8%)
Title : AC3 5.1ch 384kbps (Дубляж, Ren-TV)
Language : Russian
Default : Yes
Forced : No

General
Unique ID : 210610408678465346029424783017465551928 (0x9E7216DA399875F4AAE324EA1A3B1C38)
Complete name : D:Documen and SettingsAdminМои документыDownloadsPrison Break.Season.3.BDRip_720pPrison Break.s03.e09.720p.BDRip.mkv
Format : Matroska
Format version : Version 1
File size : 1.44 GiB
Duration : 44mn 1s
Overall bit rate : 4 683 Kbps
Encoded date : UTC 2010-04-18 09:32:00
Writing application : mkvmerge v2.2.0 ('Turn It On Again') built on Mar 4 2008 12:58:26
Writing library : libebml v0.7.7 + libmatroska v0.8.1

Video
ID : 1
Format : AVC
Format/Info : Advanced Video Codec
Format profile : High@L3.1
Format settings, CABAC : Yes
Format settings, ReFrames : 5 frames
Codec ID : V_MPEG4/ISO/AVC
Duration : 44mn 1s
Bit rate : 4 295 Kbps
Width : 1 280 pixels
Height : 720 pixels
Display aspect ratio : 16:9
Frame rate : 23.976 fps
Color space : YUV
Chroma subsampling : 4:2:0
Bit depth : 8 bits
Scan type : Progressive
Bits/(Pixel*Frame) : 0.194
Stream size : 1.29 GiB (90%)
Title : Prison Break.s03.e09.2007
Writing library : x264 core 80 r1376M 3feaec2
Encoding settings : cabac=1 / ref=5 / deblock=1:-1:-1 / analyse=0x3:0x133 / me=hex / subme=7 / psy=1 / psy_rd=1.0:0.0 / mixed_ref=1 / me_range=16 / chroma_me=1 / trellis=2 / 8x8dct=1 / cqm=0 / deadzone=21,11 / fast_pskip=0 / chroma_qp_offset=-2 / threads=6 / sliced_threads=0 / nr=0 / decimate=1 / mbaff=0 / constrained_intra=0 / bframes=3 / b_pyramid=0 / b_adapt=2 / b_bias=0 / direct=1 / wpredb=1 / wpredp=2 / keyint=250 / keyint_min=25 / scenecut=40 / rc_lookahead=40 / rc=2pass / mbtree=1 / bitrate=4295 / ratetol=1.0 / qcomp=0.60 / qpmin=10 / qpmax=51 / qpstep=4 / cplxblur=20.0 / qblur=0.5 / ip_ratio=1.40 / aq=1:1.00
Language : English
Default : Yes
Forced : No

Audio
ID : 2
Format : AC-3
Format/Info : Audio Coding 3
Mode extension : CM (complete main)
Format settings, Endianness : Big
Codec ID : A_AC3
Duration : 44mn 1s
Bit rate mode : Constant
Bit rate : 384 Kbps
Channel(s) : 6 channels
Channel positions : Front: L C R, Side: L R, LFE
Sampling rate : 48.0 KHz
Bit depth : 16 bits
Compression mode : Lossy
Stream size : 121 MiB (8%)
Title : AC3 5.1ch 384kbps (Дубляж, Ren-TV)
Language : Russian
Default : Yes
Forced : No

General
Unique ID : 215030381320117982253549855906441077821 (0xA1C55854219E4FF1A3ABEB92D9A6243D)
Complete name : D:Documen and SettingsAdminМои документыDownloadsPrison Break.Season.3.BDRip_720pPrison Break.s03.e10.720p.BDRip.mkv
Format : Matroska
Format version : Version 1
File size : 1.44 GiB
Duration : 44mn 2s
Overall bit rate : 4 678 Kbps
Encoded date : UTC 2010-04-18 17:54:16
Writing application : mkvmerge v2.2.0 ('Turn It On Again') built on Mar 4 2008 12:58:26
Writing library : libebml v0.7.7 + libmatroska v0.8.1

Video
ID : 1
Format : AVC
Format/Info : Advanced Video Codec
Format profile : High@L3.1
Format settings, CABAC : Yes
Format settings, ReFrames : 5 frames
Codec ID : V_MPEG4/ISO/AVC
Duration : 44mn 2s
Bit rate : 4 292 Kbps
Width : 1 280 pixels
Height : 720 pixels
Display aspect ratio : 16:9
Frame rate : 23.976 fps
Color space : YUV
Chroma subsampling : 4:2:0
Bit depth : 8 bits
Scan type : Progressive
Bits/(Pixel*Frame) : 0.194
Stream size : 1.29 GiB (90%)
Title : Prison Break.s03.e10.2007
Writing library : x264 core 80 r1376M 3feaec2
Encoding settings : cabac=1 / ref=5 / deblock=1:-1:-1 / analyse=0x3:0x133 / me=hex / subme=7 / psy=1 / psy_rd=1.0:0.0 / mixed_ref=1 / me_range=16 / chroma_me=1 / trellis=2 / 8x8dct=1 / cqm=0 / deadzone=21,11 / fast_pskip=0 / chroma_qp_offset=-2 / threads=6 / sliced_threads=0 / nr=0 / decimate=1 / mbaff=0 / constrained_intra=0 / bframes=3 / b_pyramid=0 / b_adapt=2 / b_bias=0 / direct=1 / wpredb=1 / wpredp=2 / keyint=250 / keyint_min=25 / scenecut=40 / rc_lookahead=40 / rc=2pass / mbtree=1 / bitrate=4292 / ratetol=1.0 / qcomp=0.60 / qpmin=10 / qpmax=51 / qpstep=4 / cplxblur=20.0 / qblur=0.5 / ip_ratio=1.40 / aq=1:1.00
Language : English
Default : Yes
Forced : No

Audio
ID : 2
Format : AC-3
Format/Info : Audio Coding 3
Mode extension : CM (complete main)
Format settings, Endianness : Big
Codec ID : A_AC3
Duration : 44mn 2s
Bit rate mode : Constant
Bit rate : 384 Kbps
Channel(s) : 6 channels
Channel positions : Front: L C R, Side: L R, LFE
Sampling rate : 48.0 KHz
Bit depth : 16 bits
Compression mode : Lossy
Stream size : 121 MiB (8%)
Title : AC3 5.1ch 384kbps (Дубляж, Ren-TV)
Language : Russian
Default : Yes
Forced : No

General
Unique ID : 193193723034283394295855645958939985171 (0x9157C1F3C60282B1BB89E5FA6D99C513)
Complete name : D:Docume and SettingsAdminМои документыDownloadsPrison Break.Season.3.BDRip_720pPrison Break.s03.e11.720p.BDRip.mkv
Format : Matroska
Format version : Version 1
File size : 1.44 GiB
Duration : 43mn 36s
Overall bit rate : 4 725 Kbps
Encoded date : UTC 2010-04-19 01:34:54
Writing application : mkvmerge v2.2.0 ('Turn It On Again') built on Mar 4 2008 12:58:26
Writing library : libebml v0.7.7 + libmatroska v0.8.1

Video
ID : 1
Format : AVC
Format/Info : Advanced Video Codec
Format profile : High@L3.1
Format settings, CABAC : Yes
Format settings, ReFrames : 5 frames
Codec ID : V_MPEG4/ISO/AVC
Duration : 43mn 36s
Bit rate : 4 338 Kbps
Width : 1 280 pixels
Height : 720 pixels
Display aspect ratio : 16:9
Frame rate : 23.976 fps
Color space : YUV
Chroma subsampling : 4:2:0
Bit depth : 8 bits
Scan type : Progressive
Bits/(Pixel*Frame) : 0.196
Stream size : 1.29 GiB (90%)
Title : Prison Break.s03.e11.2007
Writing library : x264 core 80 r1376M 3feaec2
Encoding settings : cabac=1 / ref=5 / deblock=1:-1:-1 / analyse=0x3:0x133 / me=hex / subme=7 / psy=1 / psy_rd=1.0:0.0 / mixed_ref=1 / me_range=16 / chroma_me=1 / trellis=2 / 8x8dct=1 / cqm=0 / deadzone=21,11 / fast_pskip=0 / chroma_qp_offset=-2 / threads=6 / sliced_threads=0 / nr=0 / decimate=1 / mbaff=0 / constrained_intra=0 / bframes=3 / b_pyramid=0 / b_adapt=2 / b_bias=0 / direct=1 / wpredb=1 / wpredp=2 / keyint=250 / keyint_min=25 / scenecut=40 / rc_lookahead=40 / rc=2pass / mbtree=1 / bitrate=4338 / ratetol=1.0 / qcomp=0.60 / qpmin=10 / qpmax=51 / qpstep=4 / cplxblur=20.0 / qblur=0.5 / ip_ratio=1.40 / aq=1:1.00
Language : English
Default : Yes
Forced : No

Audio
ID : 2
Format : AC-3
Format/Info : Audio Coding 3
Mode extension : CM (complete main)
Format settings, Endianness : Big
Codec ID : A_AC3
Duration : 43mn 36s
Bit rate mode : Constant
Bit rate : 384 Kbps
Channel(s) : 6 channels
Channel positions : Front: L C R, Side: L R, LFE
Sampling rate : 48.0 KHz
Bit depth : 16 bits
Compression mode : Lossy
Stream size : 120 MiB (8%)
Title : AC3 5.1ch 384kbps (Дубляж, Ren-TV)
Language : Russian
Default : Yes
Forced : No

General
Unique ID : 200155267993032080524358950086982077738 (0x9694809E4CBFB0C989AD1596C5598D2A)
Complete name : D:Docume and SettingsAdminМои документыDownloadsPrison Break.Season.3.BDRip_720pPrison Break.s03.e12.720p.BDRip.mkv
Format : Matroska
Format version : Version 1
File size : 1.44 GiB
Duration : 43mn 15s
Overall bit rate : 4 763 Kbps
Encoded date : UTC 2010-04-19 09:46:58
Writing application : mkvmerge v2.2.0 ('Turn It On Again') built on Mar 4 2008 12:58:26
Writing library : libebml v0.7.7 + libmatroska v0.8.1

Video
ID : 1
Format : AVC
Format/Info : Advanced Video Codec
Format profile : High@L3.1
Format settings, CABAC : Yes
Format settings, ReFrames : 5 frames
Codec ID : V_MPEG4/ISO/AVC
Duration : 43mn 15s
Bit rate : 4 378 Kbps
Width : 1 280 pixels
Height : 720 pixels
Display aspect ratio : 16:9
Frame rate : 23.976 fps
Color space : YUV
Chroma subsampling : 4:2:0
Bit depth : 8 bits
Scan type : Progressive
Bits/(Pixel*Frame) : 0.198
Stream size : 1.29 GiB (90%)
Title : Prison Break.s03.e12.2007
Writing library : x264 core 80 r1376M 3feaec2
Encoding settings : cabac=1 / ref=5 / deblock=1:-1:-1 / analyse=0x3:0x133 / me=hex / subme=7 / psy=1 / psy_rd=1.0:0.0 / mixed_ref=1 / me_range=16 / chroma_me=1 / trellis=2 / 8x8dct=1 / cqm=0 / deadzone=21,11 / fast_pskip=0 / chroma_qp_offset=-2 / threads=6 / sliced_threads=0 / nr=0 / decimate=1 / mbaff=0 / constrained_intra=0 / bframes=3 / b_pyramid=0 / b_adapt=2 / b_bias=0 / direct=1 / wpredb=1 / wpredp=2 / keyint=250 / keyint_min=25 / scenecut=40 / rc_lookahead=40 / rc=2pass / mbtree=1 / bitrate=4378 / ratetol=1.0 / qcomp=0.60 / qpmin=10 / qpmax=51 / qpstep=4 / cplxblur=20.0 / qblur=0.5 / ip_ratio=1.40 / aq=1:1.00
Language : English
Default : Yes
Forced : No

Audio
ID : 2
Format : AC-3
Format/Info : Audio Coding 3
Mode extension : CM (complete main)
Format settings, Endianness : Big
Codec ID : A_AC3
Duration : 43mn 15s
Bit rate mode : Constant
Bit rate : 384 Kbps
Channel(s) : 6 channels
Channel positions : Front: L C R, Side: L R, LFE
Sampling rate : 48.0 KHz
Bit depth : 16 bits
Compression mode : Lossy
Stream size : 119 MiB (8%)
Title : AC3 5.1ch 384kbps (Дубляж, Ren-TV)
Language : Russian
Default : Yes
Forced : No

General
Unique ID : 171636664489553852086984789125359107084 (0x812004E84B23A6019486892704CA7C0C)
Complete name : D:Docume and SettingsAdminМои документыDownloadsPrison Break.Season.3.BDRip_720pPrison Break.s03.e13.720p.BDRip.mkv
Format : Matroska
Format version : Version 1
File size : 1.44 GiB
Duration : 43mn 49s
Overall bit rate : 4 702 Kbps
Encoded date : UTC 2010-04-19 13:36:27
Writing application : mkvmerge v2.2.0 ('Turn It On Again') built on Mar 4 2008 12:58:26
Writing library : libebml v0.7.7 + libmatroska v0.8.1

Video
ID : 1
Format : AVC
Format/Info : Advanced Video Codec
Format profile : High@L3.1
Format settings, CABAC : Yes
Format settings, ReFrames : 5 frames
Codec ID : V_MPEG4/ISO/AVC
Duration : 43mn 49s
Bit rate : 4 317 Kbps
Width : 1 280 pixels
Height : 720 pixels
Display aspect ratio : 16:9
Frame rate : 23.976 fps
Color space : YUV
Chroma subsampling : 4:2:0
Bit depth : 8 bits
Scan type : Progressive
Bits/(Pixel*Frame) : 0.195
Stream size : 1.29 GiB (90%)
Title : Prison Break.s03.e13.2007
Writing library : x264 core 80 r1376M 3feaec2
Encoding settings : cabac=1 / ref=5 / deblock=1:-1:-1 / analyse=0x3:0x133 / me=hex / subme=7 / psy=1 / psy_rd=1.0:0.0 / mixed_ref=1 / me_range=16 / chroma_me=1 / trellis=2 / 8x8dct=1 / cqm=0 / deadzone=21,11 / fast_pskip=0 / chroma_qp_offset=-2 / threads=6 / sliced_threads=0 / nr=0 / decimate=1 / mbaff=0 / constrained_intra=0 / bframes=3 / b_pyramid=0 / b_adapt=2 / b_bias=0 / direct=1 / wpredb=1 / wpredp=2 / keyint=250 / keyint_min=25 / scenecut=40 / rc_lookahead=40 / rc=2pass / mbtree=1 / bitrate=4317 / ratetol=1.0 / qcomp=0.60 / qpmin=10 / qpmax=51 / qpstep=4 / cplxblur=20.0 / qblur=0.5 / ip_ratio=1.40 / aq=1:1.00
Language : English
Default : Yes
Forced : No

Audio
ID : 2
Format : AC-3
Format/Info : Audio Coding 3
Mode extension : CM (complete main)
Format settings, Endianness : Big
Codec ID : A_AC3
Duration : 43mn 49s
Bit rate mode : Constant
Bit rate : 384 Kbps
Channel(s) : 6 channels
Channel positions : Front: L C R, Side: L R, LFE
Sampling rate : 48.0 KHz
Bit depth : 16 bits
Compression mode : Lossy
Stream size : 120 MiB (8%)
Title : AC3 5.1ch 384kbps (Дубляж, Ren-TV)
Language : Russian
Default : Yes
Forced : No



Скачать Побег.из.тюрьмы.Prison.Break.Сезон.3.(01-13.из.13).(Пол.Шойринг).[2007-2009.боевик.драма.BDRip].[720p].[Dub.(REN-TV)].torrent без регистрации
Золото ЗОЛОТАЯ РАЗДАЧА! СКАЧАННОЕ НЕ ЗАСЧИТЫВАЕТСЯ! Золото
Дата: Зарегистрирован   [ Тип: внутренний ] Как тут cкачать?
MAGNET ссылка
MAGNET ссылка


Скачать .torrent

48 KB

Статус: проверено DHT
Скачан: торрент - 195 раз, раздача полностью - 232 раз
Размер: 18,71 GB
Оценка:  - (Голосов: 0)
Поблагодарили: 2
Поделиться ссылкой на эту раздачу с друзьями:
В контактеFacebookОдноклассникиTwitterLivejournalМой МирLiveinternet
 

 
Показать сообщения:    


Вы не можете начинать темы
Вы не можете отвечать на сообщения
Вы не можете редактировать свои сообщения
Вы не можете удалять свои сообщения
Вы не можете голосовать в опросах
Вы не можете прикреплять файлы к сообщениям
Вы можете скачивать файлы