Loading...
Error

Скачать Главная улика (Мурад Алиев) [2008, детектив, DVDRip-AVC] торрент без регистрации

 
Статистика раздачи
Размер:  1,46 GB   |    Скачан:  124 раза
Сидов:  1  [  0 KB/s  ]  
 
Автор Сообщение

МихаНЕзатор

[] 

Главная улика


Год выпуска: 2008
Страна: Россия
Продолжительность: 01:31:53

Перевод: не требуется
Субтитры: нет
Жанр: детектив
Оригинальная аудиодорожка: русский

Режиссер: Мурад Алиев

В ролях: Сергей Маховиков, Сергей Юшкевич, Юрий Осипов, Николай Чиндяйкин, Наталья Солдатова, Евгения Дмитриева, Михаил Жигалов, Александр Терешко, Александр Борисов, Натали Гончарова, Михаил Ремизов...

Описание: После тяжелого ранения, полученного в стычке с бандитами, сотрудник МВД Юрий Климов становится бизнесменом. Его рекламное агентство процветает, у него красивая молодая жена, но старых друзей с прошлого места работы Юрий не забыл.
Однажды он узнает, что его друга юности Сергея Вихрова, расследовавшего дело об убийстве известного банкира, совершено покушение. Приехав в больницу, Юрий успевает услышать предсмертные слова друга и с этого момента он попадает в запутанную и крайне опасную историю. Чтобы сохранить жизнь, Юрию остается лишь одно довести начатое Вихровым расследование до конца



Исходник: DVD5 R5
Тип релиза: DVDRip
Контейнер: MKV

Видео: 720x576@1024х576 (16:9), 25 fps, H264 ~ 1900 kbps avg, 0.183 bit/pixel
Аудио: 48 kHz, AC3, 2 ch, 192.00 kbps Русский

Общее
Полное имя : Glavnaya.ulika.2008.O.DVDRip-AVC_[Youtracker]_by_AVP Studio.mkv
Формат : Matroska
Версия формата : Version 2
Размер файла : 1,46 Гбайт
Продолжительность : 1 ч. 39 м.
Общий поток : 2094 Кбит/сек
Дата кодирования : UTC 2012-11-06 02:24:32
Программа кодирования : mkvmerge v5.0.1 ('Es ist Sommer') built on Nov 6 2011 16:23:40
Библиотека кодирования : libebml v1.2.2 + libmatroska v1.3.0

Видео
Идентификатор : 1
Формат : AVC
Формат/Информация : Advanced Video Codec
Профиль формата : High@L4.1
Параметр CABAC формата : Да
Параметр ReFrames формата : 11 кадров
Идентификатор кодека : V_MPEG4/ISO/AVC
Продолжительность : 1 ч. 39 м.
Битрейт : 1900 Кбит/сек
Ширина : 720 пикселей
Высота : 576 пикселей
Соотношение сторон : 16:9
Частота кадров : 25,000 кадров/сек
Стандарт вещания : PAL
Цветовое пространство : YUV
Субдискретизация насыщенности : 4:2:0
Битовая глубина : 8 бит
Тип развёртки : Прогрессивная
Бит/(Пиксели*Кадры) : 0.183
Размер потока : 1,29 Гбайт (89%)
Библиотека кодирования : x264 core 119 r2106 07efeb4
Настройки программы : cabac=1 / ref=11 / deblock=1:-2:-1 / analyse=0x3:0x113 / me=umh / subme=9 / psy=1 / psy_rd=1.00:0.20 / mixed_ref=1 / me_range=32 / chroma_me=1 / trellis=1 / 8x8dct=1 / cqm=0 / deadzone=21,11 / fast_pskip=0 / chroma_qp_offset=-3 / threads=3 / sliced_threads=0 / nr=0 / decimate=0 / interlaced=0 / bluray_compat=0 / constrained_intra=0 / bframes=8 / b_pyramid=2 / b_adapt=2 / b_bias=0 / direct=3 / weightb=1 / open_gop=0 / weightp=2 / keyint=250 / keyint_min=25 / scenecut=40 / intra_refresh=0 / rc_lookahead=60 / rc=2pass / mbtree=1 / bitrate=1900 / ratetol=1.0 / qcomp=0.60 / qpmin=0 / qpmax=69 / qpstep=4 / cplxblur=20.0 / qblur=0.5 / ip_ratio=1.40 / aq=1:1.00
Default : Да
Forced : Нет

Аудио
Идентификатор : 2
Формат : AC-3
Формат/Информация : Audio Coding 3
Расширение режима : CM (complete main)
Идентификатор кодека : A_AC3
Продолжительность : 1 ч. 39 м.
Вид битрейта : Постоянный
Битрейт : 192 Кбит/сек
Каналы : 2 канала
Расположение каналов : Front: L R
Частота : 48,0 КГц
Битовая глубина : 16 бит
Метод сжатия : С потерями
Размер потока : 137 Мбайт (9%)
Default : Да
Forced : Нет



Скачать Главная.улика.(Мурад.Алиев).[2008.детектив.DVDRip-AVC].torrent без регистрации
Золото ЗОЛОТАЯ РАЗДАЧА! СКАЧАННОЕ НЕ ЗАСЧИТЫВАЕТСЯ! Золото
Дата: Зарегистрирован   [ Тип: внутренний ] Как тут cкачать?
MAGNET ссылка
MAGNET ссылка


Скачать .torrent

15 KB

Статус: проверено DHT
Скачан: торрент - 124 раз, раздача полностью - 11 раз
Размер: 1,46 GB
Оценка:  - (Голосов: 0)
Поблагодарили: 2
Поделиться ссылкой на эту раздачу с друзьями:
В контактеFacebookОдноклассникиTwitterLivejournalМой МирLiveinternet
 

 
Показать сообщения:    


Вы не можете начинать темы
Вы не можете отвечать на сообщения
Вы не можете редактировать свои сообщения
Вы не можете удалять свои сообщения
Вы не можете голосовать в опросах
Вы не можете прикреплять файлы к сообщениям
Вы можете скачивать файлы