Loading...
Error

Скачать Корабль / Ковчег / El Barco (сезон 03) (Фернандо Гонзалез Молина, Дэвид Молина) [2012, фантастика, драма, приключения, HDTV] [720p] [MVO (DreamRecords)] торрент без регистрации

 
Статистика раздачи
Размер:  32,75 GB   |    Скачан:  259 раз
Сидов:  1  [  0 KB/s  ]  
 
Автор Сообщение

МихаНЕзатор

[] 

Год выпуска: 2012
Название: Корабль / Ковчег
Оригинальное название: El Barco
Страна: Испания
Производство: Antena 3
Жанр: Фантастика, драма, приключения
Продолжительность: 14 х ~ 01:20:00
Перевод: Профессиональный (многоголосый закадровый) - DreamRecords
Субтитры: Рус. | Александра Романенко

Режиссёр: Фернандо Гонзалез Молина, Дэвид Молина

В ролях: Хуан Хосе Артеро, Жизелль Кальдерон, Луис Каледжо, Марио Касас, Бернабе Фернандес, Хавьер Хернандез, Ivan Massagu™, Ирен Монтала, Марина Салас, Нюс Санс, Бланка Суарез, Хуан Пабло Шук

Описание: Мировая катастрофа вызывает катаклизм, который ведет к исчезновению Земли. На планете, покрытой водой, члены экипажа учебного корабля кажутся единственными оставшимися в живых людьми...

Доп. информация:
Озвучено: DreamRecords
Автор перевода: Александра Романенко (1-3 Серии), Дарья Селиверстова (с 4 серии)
Монтаж и сведение звука: Алексей Фокин
Роли озвучивали: Михаил Суслов, Владимир Чистохин,Светлана Чистохина,Мила Мирелли


Релиз от:

Качество: HDTVRip 720p
Формат: MKV
Видео кодек: XviD
Аудио кодек: MP3
Видео: 1280x720, 50 fps, 3 423 Kbps, 0.074 bits/pixel
Аудио #1: MP3, 48 kHz, 2 ch, 192 kbps Rus
Аудио #2: MP3, 44.1 kHz, 2 ch, 128 kbps Spa

АНОНСЫ ПОПУЛЯРНЫХ РАЗДАЧ


15.11.2014 г. торент обновлён, добавлена 16-я серия!
Format : Matroska
Format version : Version 2
File size : 2.15 GiB
Duration : 1h 20mn
Overall bit rate : 3 819 Kbps
Encoded date : UTC 2012-10-28 21:07:01
Writing application : mkvmerge v5.8.0 ('No Sleep / Pillow') built on Sep 2 2012 15:37:04
Writing library : libebml v1.2.3 + libmatroska v1.3.0

Video
ID : 1
Format : MPEG-4 Visual
Format profile : Simple@L1
Format settings, BVOP : No
Format settings, QPel : No
Format settings, GMC : No warppoints
Format settings, Matrix : Default (H.263)
Codec ID : V_MS/VFW/FOURCC / DX50
Codec ID/Hint : DivX 5
Duration : 1h 20mn
Bit rate : 3 423 Kbps
Width : 1 280 pixels
Height : 720 pixels
Display aspect ratio : 16:9
Frame rate mode : Constant
Frame rate : 50.000 fps
Color space : YUV
Chroma subsampling : 4:2:0
Bit depth : 8 bits
Scan type : Progressive
Compression mode : Lossy
Bits/(Pixel*Frame) : 0.074
Stream size : 1.93 GiB (90%)
Writing library : Lavc51.40.4
Default : Yes
Forced : No

Audio #1
ID : 2
Format : MPEG Audio
Format version : Version 1
Format profile : Layer 3
Codec ID : A_MPEG/L3
Codec ID/Hint : MP3
Duration : 1h 20mn
Bit rate mode : Constant
Bit rate : 192 Kbps
Channel(s) : 2 channels
Sampling rate : 48.0 KHz
Compression mode : Lossy
Stream size : 111 MiB (5%)
Title : DreamRecords
Language : Russian
Default : Yes
Forced : No

Audio #2
ID : 3
Format : MPEG Audio
Format version : Version 1
Format profile : Layer 3
Mode : Joint stereo
Mode extension : MS Stereo
Codec ID : A_MPEG/L3
Codec ID/Hint : MP3
Duration : 1h 20mn
Bit rate mode : Constant
Bit rate : 128 Kbps
Channel(s) : 2 channels
Sampling rate : 44.1 KHz
Compression mode : Lossy
Delay relative to video : 26ms
Stream size : 73.7 MiB (3%)
Title : Original
Language : Spanish
Default : No
Forced : No

Text
ID : 4
Format : UTF-8
Codec ID : S_TEXT/UTF8
Codec ID/Info : UTF-8 Plain Text
Title : Rus Sub
Language : Russian
Default : Yes
Forced : No



Скачать Корабль.Ковчег.El.Barco.(сезон.03).(Фернандо.Гонзалез.Молина.Дэвид.Молина).[2012.фантастика.драма.приключения.HDTV].[720p].[MVO.(DreamRecords)].torrent без регистрации
Золото ЗОЛОТАЯ РАЗДАЧА! СКАЧАННОЕ НЕ ЗАСЧИТЫВАЕТСЯ! Золото
Дата: Зарегистрирован   [ Тип: внутренний ] Как тут cкачать?
MAGNET ссылка
MAGNET ссылка


Скачать .torrent

84 KB

Статус: проверено DHT
Скачан: торрент - 259 раз, раздача полностью - 1 раз
Размер: 32,75 GB
Оценка:  - (Голосов: 0)
Поблагодарили: 2
Поделиться ссылкой на эту раздачу с друзьями:
В контактеFacebookОдноклассникиTwitterLivejournalМой МирLiveinternet
 

 

МихаНЕзатор

[] 

Раздача обновлена
 
Показать сообщения:    


Вы не можете начинать темы
Вы не можете отвечать на сообщения
Вы не можете редактировать свои сообщения
Вы не можете удалять свои сообщения
Вы не можете голосовать в опросах
Вы не можете прикреплять файлы к сообщениям
Вы можете скачивать файлы