Loading...
Error

Скачать Внутренняя сила / The Power Within (Арт Камачо) [1995, боевик, DVDRip] [AVO] торрент без регистрации

 
Статистика раздачи
Размер:  1,46 GB   |    Скачан:  146 раз
Сидов:  1  [  0 KB/s  ]  
 
Автор Сообщение

Marsianka

[] 


Внутренняя сила / The Power Within

Год выхода: 1995
Жанр: боевик
Режиссер: Арт Камачо / Art Camacho
В ролях: Тед Жан Робертс, Карен Валентайн, Кит Куган, Джон О`Харли, Уильям Забка, Джералд Окамура, Трэйси Мельхиор, П.Дж. Соулз, Ирвин Кийес

О фильме: От умирающего таинственного старика в восточных одеждах робкий и нерешительный подросток Стэн Драйер получает кольцо, наделенное мистической внутренней энергией. Точно такое же кольцо в руках злодея Вонна. Только обладатель обоих колец сможет решить судьбу этого мира



Выпущено: США / PM Entertainment Group Inc.
Продолжительность: 01:33:33
Перевод:
Авторский (одноголосый, закадровый) - Андрей Гаврилов

Кодек: XviD - Совместимо с бытовыми DVD-плеерами
Качество: DVDRip (За исходный DVD-5 Спасибо loxaba)
Видео: 720x552 (1.30:1), 25 fps, XviD build 65 ~2027 kbps avg, 0.20 bit/pixel
Аудио: 48 kHz, AC3 Dolby Digital, 2/0 (L,R) ch, ~192 kbps

Доп. информация: Звуковая дорожка по уровню неравномерная, иногда плохо слышен перевод и небольшое эхо местами - взята с VHS и приведена в "божеский" вид crusstill, за что ему огромное Спасибо!

Общее
Полное имя: Vnutrennjj.sila.1995.XviD.DVDRip.AVO_SergV.avi
Формат : AVI
Формат/Информация : Audio Video Interleave
Размер файла : 1,46 Гбайт
Продолжительность : 1 ч. 33 м.
Общий поток : 2230 Кбит/сек
Название фильма : Vnutrennjj.sila.1995.XviD.DVDRip.AVO_SergV
Программа кодирования : VirtualDubMod 1.5.10.3 | www.virtualdub-fr.org || (build 2550/release)
Примечание : Рип от SergV

Видео
Идентификатор : 0
Формат : MPEG-4 Visual
Профиль формата : Advanced Simple@L5
Параметр BVOP формата : 2
Параметр QPel формата : Нет
Параметр GMC формата : Без точки перехода
Параметр матрицы формата : Default (MPEG)
Идентификатор кодека : XVID
Идентификатор кодека/Подсказка : XviD
Продолжительность : 1 ч. 33 м.
Битрейт : 2028 Кбит/сек
Ширина : 720 пикселей
Высота : 552 пикселя
Соотношение сторон : 4:3
Частота кадров : 25,000 кадров/сек
Цветовое пространство : YUV
Субдискретизация насыщенности : 4:2:0
Битовая глубина : 8 бит
Тип развёртки : Прогрессивная
Метод сжатия : С потерями
Бит/(Пиксели*Кадры) : 0.204
Размер потока : 1,33 Гбайт (91%)
Библиотека кодирования : XviD 65

Аудио
Идентификатор : 1
Формат : AC-3
Формат/Информация : Audio Coding 3
Расширение режима : CM (complete main)
Параметр Endianness формата : Big
Идентификатор кодека : 2000
Продолжительность : 1 ч. 33 м.
Вид битрейта : Постоянный
Битрейт : 192 Кбит/сек
Каналы : 2 канала
Расположение каналов : Front: L R
Частота : 48,0 КГц
Битовая глубина : 16 бит
Метод сжатия : С потерями
Размер потока : 128 Мбайт (9%)
Выравнивание : Разделение по промежуткам
Продолжительность промежутка : 40 мс. (1,00 видеокадр)
Время предзагрузки промежутка : 500 мс.
Релиз от:



Скачать Внутренняя.сила.The.Power.Within.(Арт.Камачо).[1995.боевик.DVDRip].[AVO].torrent без регистрации
Золото ЗОЛОТАЯ РАЗДАЧА! СКАЧАННОЕ НЕ ЗАСЧИТЫВАЕТСЯ! Золото
Дата: Зарегистрирован   [ Тип: внутренний ] Как тут cкачать?
MAGNET ссылка
MAGNET ссылка


Скачать .torrent

15 KB

Статус: проверено DHT
Скачан: торрент - 146 раз, раздача полностью - 20 раз
Размер: 1,46 GB
Оценка:  - (Голосов: 0)
Поблагодарили: 0
Поделиться ссылкой на эту раздачу с друзьями:
В контактеFacebookОдноклассникиTwitterLivejournalМой МирLiveinternet
 

 
Показать сообщения:    


Вы не можете начинать темы
Вы не можете отвечать на сообщения
Вы не можете редактировать свои сообщения
Вы не можете удалять свои сообщения
Вы не можете голосовать в опросах
Вы не можете прикреплять файлы к сообщениям
Вы можете скачивать файлы