Loading...
Error

Скачать Клик: С пультом по жизни / Click (Фрэнк Корачи) [2006, фантастика, комедия, HDRip-AVC] [Dub] торрент без регистрации

 
Статистика раздачи
Размер:  1,46 GB   |    Скачан:  193 раза
Сидов:  1  [  0 KB/s  ]  
 
Автор Сообщение

Marsianka

[] 

Клик: С пультом по жизни / Click
«Представьте, что у вас появился уникальный пульт... Которым можно изменить всю вашу жизнь?»

Информация о фильме
Название: Клик: С пультом по жизни
Оригинальное название: Click
Год выхода: 2006
Жанр: фантастика, комедия
Режиссер: Фрэнк Корачи
В ролях: Адам Сэндлер, Кейт Бекинсейл, Кристофер Уокен, Дэвид Хасселхофф, Генри Уинклер, Джули Кавнер, Шон Эстин, Джозеф Кастанон, Йон Хилл, Джэйк Хоффман, Татум МакКанн, Лоррэйн Николсон, Кэти Кэссиди, Камерон Монахэн, Дженнифер Кулидж, Рэйчел Дрэч, Софи Монк

О фильме:
Архитектору-трудоголику попадает в руки такой вот пульт управления жизнью. Теперь он может остановить время и в этот момент наверстать упущенное, или промотать жизнь вперёд, и узреть результаты прожитого. Но техника есть техника у неё для нас всегда сюрприз в запасе. Накопив собственную память, пульт начинает сам управлять скоростью перемотки и выбором момента жизни. Игрушка перестаёт развлекать и превращается в опасное оружие, направленное против самого владельца. Только теперь герой понимает, как неверно он использовал время.



Рейтинг PG-13- Детям до 13 лет просмотр не желателен

Страна: США
Студия: Columbia Pictures Corporation
Продолжительность: 01:47:31
Перевод: Профессиональный (полное дублирование)

Файл
Кодек: H.264
Качество: HDRip-AVC
Видео: AVC; 1024x560 (16:9); 1453 Kbps; 23,976 fps; 0,106 bpp
Звук: AC3; 448 Kbps; CBR; 6 ch
Общее
Полное имя : D:VideoClick.2006.HDRip.AVC.mkv
Формат : Matroska
Версия формата : Version 1
Размер файла : 1,46 Гбайт
Продолжительность : 1 ч. 47 м.
Общий поток : 1940 Кбит/сек
Программа кодирования : mkvmerge v2.3.0
Библиотека кодирования : libebml v0.7.7 + libmatroska v0.8.1

Видео
Идентификатор : 2
Формат : AVC
Формат/Информация : Advanced Video Codec
Профиль формата : High@L3.1
Параметр CABAC формата : Да
Параметр ReFrames формата : 2 кадра
Идентификатор кодека : V_MPEG4/ISO/AVC
Продолжительность : 1 ч. 47 м.
Битрейт : 1489 Кбит/сек
Ширина : 1024 пикселя
Высота : 560 пикселей
Соотношение сторон : 1,85:1
Частота кадров : 23,976 кадра/сек
Цветовое пространство : YUV
Субдискретизация насыщенности : 4:2:0
Битовая глубина : 8 бит
Тип развёртки : Прогрессивная
Бит/(Пиксели*Кадры) : 0.108
Размер потока : 1,09 Гбайт (75%)
Библиотека кодирования : x264 core 65 r1040M 1591275
Настройки программы : cabac=1 / ref=2 / deblock=1:-6:-6 / analyse=0x3:0x113 / me=hex / subme=6 / psy_rd=1.0:0.0 / mixed_ref=0 / me_range=16 / chroma_me=1 / trellis=1 / 8x8dct=1 / cqm=0 / deadzone=21,11 / chroma_qp_offset=-2 / threads=3 / nr=0 / decimate=1 / mbaff=0 / bframes=7 / b_pyramid=0 / b_adapt=1 / b_bias=0 / direct=2 / wpredb=0 / keyint=250 / keyint_min=25 / scenecut=40(pre) / rc=2pass / bitrate=1489 / ratetol=1.0 / qcomp=0.60 / qpmin=10 / qpmax=51 / qpstep=4 / cplxblur=20.0 / qblur=0.5 / ip_ratio=1.40 / pb_ratio=1.30 / aq=0
Язык : English
Default : Да
Forced : Нет

Аудио
Идентификатор : 1
Формат : AC-3
Формат/Информация : Audio Coding 3
Расширение режима : CM (complete main)
Параметр Endianness формата : Big
Идентификатор кодека : A_AC3
Продолжительность : 1 ч. 47 м.
Вид битрейта : Постоянный
Битрейт : 448 Кбит/сек
Каналы : 6 каналов
Расположение каналов : Front: L C R, Side: L R, LFE
Частота : 48,0 КГц
Битовая глубина : 16 бит
Метод сжатия : С потерями
Размер потока : 345 Мбайт (23%)
Default : Да
Forced : Нет










Релиз от:



Скачать Клик.С.пультом.по.жизни.Click.(Фрэнк.Корачи).[2006.фантастика.комедия.HDRip-AVC].[Dub].torrent без регистрации
Золото ЗОЛОТАЯ РАЗДАЧА! СКАЧАННОЕ НЕ ЗАСЧИТЫВАЕТСЯ! Золото
Дата: Зарегистрирован   [ Тип: внутренний ] Как тут cкачать?
MAGNET ссылка
MAGNET ссылка


Скачать .torrent

15 KB

Статус: проверено DHT
Скачан: торрент - 193 раз, раздача полностью - 367 раз
Размер: 1,46 GB
Оценка:  4 (Голосов: 1)
Поблагодарили: 2
Поделиться ссылкой на эту раздачу с друзьями:
В контактеFacebookОдноклассникиTwitterLivejournalМой МирLiveinternet
 

 
Показать сообщения:    


Вы не можете начинать темы
Вы не можете отвечать на сообщения
Вы не можете редактировать свои сообщения
Вы не можете удалять свои сообщения
Вы не можете голосовать в опросах
Вы не можете прикреплять файлы к сообщениям
Вы можете скачивать файлы