Loading...
Error

Скачать Пианино / The Piano (Джейн Кэмпион) [1993, драма, мелодрама, HDRip] [MVO] торрент без регистрации

 
Статистика раздачи
Размер:  744 MB   |    Скачан:  153 раза

Полного источника не было: 20 минут

 
Автор Сообщение

Marsianka

[] 

Информация о фильме
Название: Пианино
Оригинальное название: The Piano
Год выхода: 1993
Жанр: драма, мелодрама
Режиссер: Джейн Кэмпион / Jane Campion
В ролях: Холли Хантер, Харви Кейтель, Сэм Нил, Анна Пакуин, Керри Уолкер, Женевьева Лемон, Танджия Бэйкер, Йен Мун, Питер Деннетт, Те Уотануи Скипуиз

О фильме:
Середина 19-го века. Немая Ада вместе с маленькой дочерью и любимым пианино покидает родную Шотландию и переезжает на другой конец света, в Новую Зеландию, где ее ждет будущий муж Стюарт. Он отказывается доставить в дом пианино, которое остается брошенным на берегу. Ада, не говорящая с шести лет, все же показывает мужу всю глубину своего гнева. Для этой сильной женщины молчание далеко не знак согласия.

Сосед Стюарта Бэйнс, похожий на дикаря, привозит пианино, заменяющее Аде голос, к себе домой. Она может получить его назад, но только если будет приходить к Бэйнсу домой и давать ему уроки музыки по числу клавиш. Эти уроки заведут их в пучину роковых страстей



Страна: Австралия, Новая Зеландия, Франция
Студия: Australian Film Commission, Ciby 2000
Продолжительность: 01:55:36
Перевод: Профессиональный (многоголосый, закадровый)

Файл
Кодек: XviD / MP3
Качество: HDRip
Видео: 624x336 (1.86:1), 25 fps, XviD build 50 ~761 kbps avg, 0.14 bit/pixel
Звук: 48 kHz, MPEG Layer 3, 2 ch, ~128.00 kbps avg
General
Complete name : /media/Пианино (The Piano) 1993г..avi
Format : AVI
Format/Info : Audio Video Interleave
File size : 744 MiB
Duration : 1h 55mn
Overall bit rate : 899 Kbps
Writing application : VirtualDubMod 1.5.10.2 (build 2540/release)

Video
ID : 0
Format : MPEG-4 Visual
Format profile : Advanced Simple@L5
Format settings, BVOP : 1
Format settings, QPel : No
Format settings, GMC : No warppoints
Format settings, Matrix : Custom
Codec ID : XVID
Codec ID/Hint : XviD
Duration : 1h 55mn
Bit rate : 762 Kbps
Width : 624 pixels
Height : 336 pixels
Display aspect ratio : 1.85:1
Frame rate : 25.000 fps
Color space : YUV
Chroma subsampling : 4:2:0
Bit depth : 8 bits
Scan type : Progressive
Compression mode : Lossy
Bits/(Pixel*Frame) : 0.145
Stream size : 630 MiB (85%)
Writing library : XviD 1.2.1 (UTC 2008-12-04)

Audio
ID : 1
Format : MPEG Audio
Format version : Version 1
Format profile : Layer 3
Codec ID : 55
Codec ID/Hint : MP3
Duration : 1h 55mn
Bit rate mode : Constant
Bit rate : 128 Kbps
Channel(s) : 2 channels
Sampling rate : 48.0 KHz
Compression mode : Lossy
Stream size : 106 MiB (14%)
Alignment : Aligned on interleaves
Interleave, duration : 40 ms (1.00 video frame)
Interleave, preload duration : 504 ms
Writing library : LAME3.98r
Encoding settings : -m s -V 4 -q 2 -lowpass 17 -b 128



Скачать Пианино.The.Piano.(Джейн.Кэмпион).[1993.драма.мелодрама.HDRip].[MVO].torrent без регистрации
Золото ЗОЛОТАЯ РАЗДАЧА! СКАЧАННОЕ НЕ ЗАСЧИТЫВАЕТСЯ! Золото
Дата: Зарегистрирован   [ Тип: внутренний ] Как тут cкачать?
MAGNET ссылка
MAGNET ссылка


Скачать .torrent

15 KB

Статус: проверено DHT
Скачан: торрент - 153 раз, раздача полностью - 45 раз
Размер: 744 MB
Оценка:  - (Голосов: 0)
Поблагодарили: 0
Поделиться ссылкой на эту раздачу с друзьями:
В контактеFacebookОдноклассникиTwitterLivejournalМой МирLiveinternet
 

 
Показать сообщения:    


Вы не можете начинать темы
Вы не можете отвечать на сообщения
Вы не можете редактировать свои сообщения
Вы не можете удалять свои сообщения
Вы не можете голосовать в опросах
Вы не можете прикреплять файлы к сообщениям
Вы можете скачивать файлы