Loading...
Error

Скачать Лампы из человеческой кожи / Human Lanterns (Сунь Чун) [1982, боевые искусства, ужасы, DVDRip] [AVO] торрент без регистрации

 
Статистика раздачи
Размер:  1,37 GB   |    Скачан:  120 раз
Сидов:  1  [  0 KB/s  ]  
 
Автор Сообщение

Marsianka

[] 


Лампы из человеческой кожи / Human Lanterns

Год выхода: 1982
Жанр: боевые искусства, ужасы
Режиссер: Сунь Чун / Chung Sun
В ролях: Ло Лье, Чень Куань Тай, Энтони Лау, Тьен Ни, Сунь Чиэнь, Лам Сау Кван, Ло Мэн, Чен Мю, Ха Пин

О фильме: Мастер Тань и мастер Лун самые известные герои в небольшом городке.Они постоянно конфликтуют и стараются уколоть друг друга любыми возможными способами.Впереди фестиваль фонарей и мастер Лун намерен победить мастера Таня.Для этого он решает заказать самую лучшую лампу у самого лучшего мастера.Придя к мастеру,Лун узнает в нем своего бывшего соперника Чунь Фуна.Семь лет назад Лун победил Чунь Фуна на дуэли и оставил на его лбу шрам.Кроме того он увел у Чуня его любимую девушку.Сделав заказ,Лун уходит.Он еще не знает,что Чунь Фун семь лет копил в себе ненависть и теперь он намерен отомстить...(В.Береговых)



Выпущено: Гонконг / Shaw Brothers
Продолжительность: 01:34:34
Перевод:
Авторский (одноголосый, закадровый) - Виктор Береговых

Кодек: XviD - Совместимо с бытовыми DVD-плеерами
Качество: DVDRip (За исходный DVD-5 Спасибо jet)
Видео: 720x304 (2.37:1), 25 fps, XviD build 65 ~1869 kbps avg, 0.34 bit/pixel
Аудио: 48 kHz, AC3 Dolby Digital, 2/0 (L,R) ch, ~192 kbps

Общее
Полное имя: Lamp.iz.chelovecheskoi.kogi.1982.XviD.DVDRip.AVO_SergV.avi
Формат : AVI
Формат/Информация : Audio Video Interleave
Размер файла : 1,37 Гбайт
Продолжительность : 1 ч. 34 м.
Общий поток : 2072 Кбит/сек
Название фильма : Lamp.iz.chelovecheskoi.kogi.1982.XviD.DVDRip.AVO_SergV
Программа кодирования : VirtualDubMod 1.5.10.3 | www.virtualdub-fr.org || (build 2550/release)
Примечание : Рип от SergV

Видео
Идентификатор : 0
Формат : MPEG-4 Visual
Профиль формата : Advanced Simple@L5
Параметр BVOP формата : 2
Параметр QPel формата : Нет
Параметр GMC формата : Без точки перехода
Параметр матрицы формата : Default (MPEG)
Идентификатор кодека : XVID
Идентификатор кодека/Подсказка : XviD
Продолжительность : 1 ч. 34 м.
Битрейт : 1870 Кбит/сек
Ширина : 720 пикселей
Высота : 304 пикселя
Соотношение сторон : 2,35:1
Частота кадров : 25,000 кадров/сек
Цветовое пространство : YUV
Субдискретизация насыщенности : 4:2:0
Битовая глубина : 8 бит
Тип развёртки : Прогрессивная
Метод сжатия : С потерями
Бит/(Пиксели*Кадры) : 0.342
Размер потока : 1,24 Гбайт (90%)
Библиотека кодирования : XviD 65

Аудио
Идентификатор : 1
Формат : AC-3
Формат/Информация : Audio Coding 3
Расширение режима : CM (complete main)
Параметр Endianness формата : Big
Идентификатор кодека : 2000
Продолжительность : 1 ч. 34 м.
Вид битрейта : Постоянный
Битрейт : 192 Кбит/сек
Каналы : 2 канала
Расположение каналов : Front: L R
Частота : 48,0 КГц
Битовая глубина : 16 бит
Метод сжатия : С потерями
Размер потока : 130 Мбайт (9%)
Выравнивание : Разделение по промежуткам
Продолжительность промежутка : 40 мс. (1,00 видеокадр)
Время предзагрузки промежутка : 500 мс.
Релиз от:



Скачать Лампы.из.человеческой.кожи.Human.Lanterns.(Сунь.Чун).[1982.боевые.искусства.ужасы.DVDRip].[AVO].torrent без регистрации
Золото ЗОЛОТАЯ РАЗДАЧА! СКАЧАННОЕ НЕ ЗАСЧИТЫВАЕТСЯ! Золото
Дата: Зарегистрирован   [ Тип: внутренний ] Как тут cкачать?
MAGNET ссылка
MAGNET ссылка


Скачать .torrent

14 KB

Статус: проверено DHT
Скачан: торрент - 120 раз, раздача полностью - 5 раз
Размер: 1,37 GB
Оценка:  - (Голосов: 0)
Поблагодарили: 0
Поделиться ссылкой на эту раздачу с друзьями:
В контактеFacebookОдноклассникиTwitterLivejournalМой МирLiveinternet
 

 
Показать сообщения:    


Вы не можете начинать темы
Вы не можете отвечать на сообщения
Вы не можете редактировать свои сообщения
Вы не можете удалять свои сообщения
Вы не можете голосовать в опросах
Вы не можете прикреплять файлы к сообщениям
Вы можете скачивать файлы