Loading...
Error

Скачать Дракула: Мертвый и довольный этим / Dracula: Dead and Loving It (Мел Брукс) [1995, комедия, DVDRip] [MVO] торрент без регистрации

 
Статистика раздачи
Размер:  2 GB   |    Скачан:  135 раз
Сидов:  1  [  0 KB/s  ]  
 
Автор Сообщение

Marsianka

[] 

Информация о фильме
Название: Дракула: Мертвый и довольный этим
Оригинальное название: Dracula Dead and Loving It
Год выхода: 1995
Жанр: комедия
Режиссер: Мел Брукс
В ролях: Лесли Нильсен, Питер МакНикол, Стивен Уэбер, Эми Ясбек, Мел Брукс, Лизетт Энтони, Харви Кормен, Марк Блэнкфилд, Меган Кэвэна, Грегг Бинкли

О фильме:
Заключенный в своем уединенном замке в Трансильвании, окруженный компанией летучих мышей, граф Дракула чувствует необходимость покинуть родные места, в которых свежая кровь становится слишком редким праздником. Для любителей интриг нельзя придумать лучших "охотничьих угодий", чем викторианская Англия, населенная страстными женщинами, ценящими любовь и только и жаждущими, чтобы их соблазнили. Классический сюжет, если бы не одно "но". Графа Дракулу играет знаменитый комедийный актер Лесли Нильсен. Смесь ужаса и смеха в фильме Мэла Брукса открывает правду об известнейшем персонаже - графе Дракуле, патетическом неудачнике и великом сексуальном интригане.



Страна: США, Франция
Продолжительность: 01:29:43
Перевод: Профессиональный (многоголосный)

Файл
Кодек: XviD
Качество: DVDRip
Видео: 720x400, 23.976 fps, ~1876 Kbit/s
Звук:
Аудио #1 Русский: АС3, 48000 Hz, 2 канала, ~192 kbit/s [профессиональный (многоголосный закадровый) | «СОЮЗ Видео»]
Аудио #2 Русский: МР3, 48000 Hz, 2 канала, ~128 kbit/s [профессиональный (многоголосный закадровый) | «НТВ+»]
Аудио #3 Английский: АС3, 48000 Hz, 2 канала, ~192 kbit/s
General
Complete name : Oracula1995_Dracula_Dead_and_Loving_It.avi
Format : AVI
Format/Info : Audio Video Interleave
Format profile : OpenDML
File size : 2.00 GiB
Duration : 1h 29mn
Overall bit rate : 3 198 Kbps
Movie name : Дракула: Мертвый и довольный / Dracula: Dead and Loving It (1995)
Director : MaLLIeHbKa
Writing application : VirtualDubMod 1.5.10.2 (build 2540/release)
Copyright : torrents.ru
Comment : 31.12.2008

Video
ID : 0
Format : MPEG-4 Visual
Format profile : Advanced Simple@L5
Format settings, BVOP : 1
Format settings, QPel : No
Format settings, GMC : No warppoints
Format settings, Matrix : Default (MPEG)
Codec ID : XVID
Codec ID/Hint : XviD
Duration : 1h 29mn
Bit rate : 1 876 Kbps
Width : 720 pixels
Height : 400 pixels
Display aspect ratio : 16:9
Frame rate : 23.976 fps
Color space : YUV
Chroma subsampling : 4:2:0
Bit depth : 8 bits
Scan type : Progressive
Compression mode : Lossy
Bits/(Pixel*Frame) : 0.272
Stream size : 1.18 GiB (59%)
Writing library : XviD 1.2.1 (UTC 2008-12-04)

Audio #1
ID : 1
Format : AC-3
Format/Info : Audio Coding 3
Mode extension : CM (complete main)
Codec ID : 2000
Duration : 1h 29mn
Bit rate mode : Constant
Bit rate : 192 Kbps
Channel(s) : 2 channels
Channel positions : Front: L R
Sampling rate : 48.0 KHz
Bit depth : 16 bits
Compression mode : Lossy
Stream size : 123 MiB (6%)
Alignment : Split accross interleaves
Interleave, duration : 42 ms (1.00 video frame)
Interleave, preload duration : 500 ms

Audio #2
ID : 2
Format : MPEG Audio
Format version : Version 1
Format profile : Layer 3
Codec ID : 55
Codec ID/Hint : MP3
Duration : 1h 29mn
Bit rate mode : Constant
Bit rate : 128 Kbps
Channel(s) : 2 channels
Sampling rate : 48.0 KHz
Compression mode : Lossy
Stream size : 82.1 MiB (4%)
Alignment : Aligned on interleaves
Interleave, duration : 42 ms (1.00 video frame)
Interleave, preload duration : 504 ms
Writing library : LAME3.97
Encoding settings : -m s -V 4 -q 2 -lowpass 17 -b 128

Audio #3
ID : 3
Format : AC-3
Format/Info : Audio Coding 3
Mode extension : CM (complete main)
Codec ID : 2000
Duration : 1h 29mn
Bit rate mode : Constant
Bit rate : 192 Kbps
Channel(s) : 2 channels
Channel positions : Front: L R
Sampling rate : 48.0 KHz
Bit depth : 16 bits
Compression mode : Lossy
Stream size : 123 MiB (6%)
Alignment : Split accross interleaves
Interleave, duration : 42 ms (1.00 video frame)
Interleave, preload duration : 500 ms



Скачать Дракула.Мертвый.и.довольный.этим.Dracula.Dead.and.Loving.It.(Мел.Брукс).[1995.комедия.DVDRip].[MVO].torrent без регистрации
Золото ЗОЛОТАЯ РАЗДАЧА! СКАЧАННОЕ НЕ ЗАСЧИТЫВАЕТСЯ! Золото
Дата: Зарегистрирован   [ Тип: внутренний ] Как тут cкачать?
MAGNET ссылка
MAGNET ссылка


Скачать .torrent

10 KB

Статус: проверено DHT
Скачан: торрент - 135 раз, раздача полностью - 23 раз
Размер: 2 GB
Оценка:  - (Голосов: 0)
Поблагодарили: 0
Поделиться ссылкой на эту раздачу с друзьями:
В контактеFacebookОдноклассникиTwitterLivejournalМой МирLiveinternet
 

 
Показать сообщения:    


Вы не можете начинать темы
Вы не можете отвечать на сообщения
Вы не можете редактировать свои сообщения
Вы не можете удалять свои сообщения
Вы не можете голосовать в опросах
Вы не можете прикреплять файлы к сообщениям
Вы можете скачивать файлы