Loading...
Error

Скачать Роковая Лара / Io, loro e Lara (Карло Вердоне) [2009, комедия, DVDRip] [MVO]+[Оригинал]+[Sub] торрент без регистрации

 
Статистика раздачи
Размер:  1,46 GB   |    Скачан:  122 раза

Полного источника не было: 24 минуты

 
Автор Сообщение

Marsianka

[] 

Страна: Италия, Blue Sky Films
Жанр: комедия
Год выпуска: 2009
Продолжительность: 01:51:37

Перевод: Профессиональный (многоголосый закадровый)
Оригинальная дорожка: итальянский
Cубтитры: украинский
Режиссер: Карло Вердоне / Carlo Verdone

В ролях: Карло Вердоне, Лаура Кьятти, Анна Бонаюто, Анджела Финоккьяро, Марко Джаллини, Серджо Фиорентини, Ольга Балан, Агнесса Клэсс, Тамара Ди Джулио, Кристина Одассо...

Описание: Молодой священник возвращается после миссии в Африке на родину в Италию, узнав, что умерла его близкая родственница. Вся огромная итальянская семья собирается, чтобы разделить наследство, но откуда ни возьмись появляется странная незнакомка, которой покойная завещает свою драгоценную квартиру. Все возмущаются Кто она? Многие питают к ней ненависть, но не добрый и чувствительный священник Карло.

Исходник: DVD9 R5
Качество: DVDRip
Формат: AVI

Видео: 720x304 (2.35:1), 25.000 fps, XviD MPEG-4 ~1477 kbps avg, 0.270 bit/pixel
Аудио: Русский: 48 kHz, Dolby AC3, 6 ch, 384.00 kbps Constant
Раздача от:

Общее
Полное имя : Rokovaya.Lara.2009.P.DVDRip_[Youtracker]_by_avproh.avi
Формат : AVI
Формат/Информация : Audio Video Interleave
Размер файла : 1,46 Гбайт
Продолжительность : 1 ч. 51 м.
Общий поток : 1870 Кбит/сек
Программа кодирования : VirtualDubMod 1.5.10.3 | www.virtualdub-fr.org || (build 2550/release)
Библиотека кодирования : VirtualDubMod build 2550/release

Видео
Идентификатор : 0
Формат : MPEG-4 Visual
Профиль формата : Advanced Simple@L5
Параметр BVOP формата : 1
Параметр QPel формата : Нет
Параметр GMC формата : Без точки перехода
Параметр матрицы формата : Выборочная
Идентификатор кодека : XVID
Идентификатор кодека/Подсказка : XviD
Продолжительность : 1 ч. 51 м.
Битрейт : 1477 Кбит/сек
Ширина : 720 пикселей
Высота : 304 пикселя
Соотношение сторон : 2,35:1
Частота кадров : 25,000 кадров/сек
Цветовое пространство : YUV
Субдискретизация насыщенности : 4:2:0
Битовая глубина : 8 бит
Тип развёртки : Прогрессивная
Метод сжатия : С потерями
Бит/(Пиксели*Кадры) : 0.270
Размер потока : 1,15 Гбайт (79%)
Библиотека кодирования : XviD 65

Аудио
Идентификатор : 1
Формат : AC-3
Формат/Информация : Audio Coding 3
Расширение режима : CM (complete main)
Параметр Endianness формата : Big
Идентификатор кодека : 2000
Продолжительность : 1 ч. 51 м.
Вид битрейта : Постоянный
Битрейт : 384 Кбит/сек
Каналы : 6 каналов
Расположение каналов : Front: L C R, Side: L R, LFE
Частота : 48,0 КГц
Битовая глубина : 16 бит
Метод сжатия : С потерями
Размер потока : 307 Мбайт (21%)
Выравнивание : Разделение по промежуткам
Продолжительность промежутка : 40 мс. (1,00 видеокадр)
Время предзагрузки промежутка : 500 мс.



Скачать Роковая.Лара.Io.loro.e.Lara.(Карло.Вердоне).[2009.комедия.DVDRip].[MVO]+[Оригинал]+[Sub].torrent без регистрации
Золото ЗОЛОТАЯ РАЗДАЧА! СКАЧАННОЕ НЕ ЗАСЧИТЫВАЕТСЯ! Золото
Дата: Зарегистрирован   [ Тип: внутренний ] Как тут cкачать?
MAGNET ссылка
MAGNET ссылка


Скачать .torrent

15 KB

Статус: проверено DHT
Скачан: торрент - 122 раз, раздача полностью - 13 раз
Размер: 1,46 GB
Оценка:  - (Голосов: 0)
Поблагодарили: 1
Поделиться ссылкой на эту раздачу с друзьями:
В контактеFacebookОдноклассникиTwitterLivejournalМой МирLiveinternet
 

 
Показать сообщения:    


Вы не можете начинать темы
Вы не можете отвечать на сообщения
Вы не можете редактировать свои сообщения
Вы не можете удалять свои сообщения
Вы не можете голосовать в опросах
Вы не можете прикреплять файлы к сообщениям
Вы можете скачивать файлы