Loading...
Error

Скачать Корабль / Ковчег / El Barco (сезон 03) (Фернандо Гонзалез Молина, Дэвид Молина) [2012, фантастика, драма, приключения, HDTVRip] [MVO (DreamRecords)] торрент без регистрации

 
Статистика раздачи
Размер:  13,4 GB   |    Скачан:  397 раз
Сидов:  1  [  0 KB/s  ]  
 
Автор Сообщение

МихаНЕзатор

[] 

Год выпуска: 2012
Название: Корабль / Ковчег
Оригинальное название: El Barco
Страна: Испания
Производство: Antena 3
Жанр: Фантастика, драма, приключения
Продолжительность: 14 х ~ 01:20:00
Перевод: Профессиональный (многоголосый закадровый) - DreamRecords
Субтитры: Отсутствуют

Режиссёр: Фернандо Гонзалез Молина, Дэвид Молина

В ролях: Хуан Хосе Артеро, Жизелль Кальдерон, Луис Каледжо, Марио Касас, Бернабе Фернандес, Хавьер Хернандез, Ivan Massagu™, Ирен Монтала, Марина Салас, Нюс Санс, Бланка Суарез, Хуан Пабло Шук

Описание: Мировая катастрофа вызывает катаклизм, который ведет к исчезновению Земли. На планете, покрытой водой, члены экипажа учебного корабля кажутся единственными оставшимися в живых людьми...

Доп. информация:
Озвучено: DreamRecords
Автор перевода: Александра Романенко (1-3 Серии), Дарья Селиверстова (с 4 серии)
Монтаж и сведение звука: Алексей Фокин
Роли озвучивали: Михаил Суслов, Владимир Чистохин,Светлана Чистохина,Мила Мирелли


Релиз от:

Качество: HDTVRip
Формат: AVI
Видео кодек: XviD
Аудио кодек: MP3
Видео: 720x400, 23.976 fps, 1 295 Kbps, 0.188 bits/pixel
Аудио: MP3, 48 kHz, 2 ch, 192 kbps

15.11.2014 г. торент обновлён, добавлена 16-я серия!

АНОНСЫ ПОПУЛЯРНЫХ РАЗДАЧ
Format : AVI
Format/Info : Audio Video Interleave
File size : 863 MiB
Duration : 1h 20mn
Overall bit rate : 1 496 Kbps
Writing application : VirtualDubModRus 1.5.10.2 (build 2542/release)
Writing library : VirtualDubMod build 2542/release

Video
ID : 0
Format : MPEG-4 Visual
Format profile : Advanced Simple@L5
Format settings, BVOP : 1
Format settings, QPel : No
Format settings, GMC : No warppoints
Format settings, Matrix : Default (MPEG)
Codec ID : XVID
Codec ID/Hint : XviD
Duration : 1h 20mn
Bit rate : 1 295 Kbps
Width : 720 pixels
Height : 400 pixels
Display aspect ratio : 16:9
Frame rate : 23.976 fps
Color space : YUV
Chroma subsampling : 4:2:0
Bit depth : 8 bits
Scan type : Progressive
Compression mode : Lossy
Bits/(Pixel*Frame) : 0.187
Stream size : 747 MiB (87%)
Writing library : XviD 64

Audio
ID : 1
Format : MPEG Audio
Format version : Version 1
Format profile : Layer 3
Mode : Joint stereo
Codec ID : 55
Codec ID/Hint : MP3
Duration : 1h 20mn
Bit rate mode : Constant
Bit rate : 192 Kbps
Channel(s) : 2 channels
Sampling rate : 48.0 KHz
Compression mode : Lossy
Stream size : 111 MiB (13%)
Alignment : Aligned on interleaves
Interleave, duration : 42 ms (1.00 video frame)
Interleave, preload duration : 504 ms



Скачать Корабль.Ковчег.El.Barco.(сезон.03).(Фернандо.Гонзалез.Молина.Дэвид.Молина).[2012.фантастика.драма.приключения.HDTVRip].[MVO.(DreamRecords)].torrent без регистрации
Золото ЗОЛОТАЯ РАЗДАЧА! СКАЧАННОЕ НЕ ЗАСЧИТЫВАЕТСЯ! Золото
Дата: Зарегистрирован   [ Тип: внутренний ] Как тут cкачать?
MAGNET ссылка
MAGNET ссылка


Скачать .torrent

35 KB

Статус: проверено DHT
Скачан: торрент - 397 раз, раздача полностью - 24 раз
Размер: 13,4 GB
Оценка:  5 (Голосов: 1)
Поблагодарили: 5
Поделиться ссылкой на эту раздачу с друзьями:
В контактеFacebookОдноклассникиTwitterLivejournalМой МирLiveinternet
 

 

МихаНЕзатор

[] 

Раздача обновлена.
 
Показать сообщения:    


Вы не можете начинать темы
Вы не можете отвечать на сообщения
Вы не можете редактировать свои сообщения
Вы не можете удалять свои сообщения
Вы не можете голосовать в опросах
Вы не можете прикреплять файлы к сообщениям
Вы можете скачивать файлы