Loading...
Error

Скачать Путешественник / Voyager / Homo Faber (Фолькер Шлендорфф) [1991, драма, DVDRip] [DVO]+[Sub]+[Оригинал] торрент без регистрации

 
Статистика раздачи
Размер:  1,67 GB   |    Скачан:  111 раз
Сидов:  1  [  0 KB/s  ]  
 
Автор Сообщение

Marsianka

[] 

Путешественник / Homo Faber / Voyager

Страна: Германия, Франция, Великобритания, Греция
Студия: Action Films, Bioskop Film
Жанр: драма
Год выпуска: 1991
Продолжительность: 01:48:44
Перевод: Профессиональный (двухголосый, закадровый) ОРТ
Cубтитры: немецкие
Оригинальная аудиодорожка: английский
Режиссер: Фолькер Шлендорфф / Volker Schlondorff (Schl¦ndorff)
Композитор: Стэнли Майерс
В ролях: Сэм Шепард /Sam Shepard/, Жюли Дельпи /Julie Delpy/, Барбара Зукова /Barbara Sukowa/, Дитер Кирхлехнер /Dieter Kirchlechner/, Трэйси Линд /Traci Lind/, Деборра-Ли Фернесс /Deborra-Lee Furness/, Август Зирнер /August Zirner/, Томас Хайнце /Thomas Heinze

Описание:
Жизнь полна неожиданностей. Но то, что случилось с героем фильма, человеком неординарным и деятельным, невероятно и неповторимо. Шквал случайностей и таинственных совпадений обрушивают на него события давнего прошлого.
Провидение настигает его и заставляет пережить прекрасное и трагическое чувство. Судьба оказывается жестокой и безжалостной.
Талантливая комбинация "дорожного кино" (road movie) и греческой трагедии поставлена по классическому роману "HOMO FABER" Макса Фриша. В этой притче о морали без морализаторства Уолтер Фабер (по книге швейцарец, а по фильму американец) - инженер, который не может долго оставаться на одном месте и, можно сказать, одержим постоянным перемещением, сменой мест, человек с явно выработанным прагматизмом, связанным с этой привычкой. Он приближается к тому отрезку жизни перед старостью, что принято называть "возраст средних лет". Сэм Шепард идеально подходит для этой роли, квинтэссенции одиночки, обоженного жизнью - "Мне нравится быть там, где меня никто не может найти". Черно-белая ретроспекция используется для того, чтобы передать воспоминания Фабера о студенческих днях в Цюрихе перед Второй мировой войной. Тогда он любил Ханну, немецкую еврейку, беременную его ребенком. "Настоящее" фильма размещено в 1950-х годах в еще неоправившейся Европе. После вынужденной посадки, ожидая самолет в Венесуэлу, Фабер узнает у случайного попутчика, оказавшегося старым знакомым, о том, что Ханна вышла замуж за его друга Йоахима. У них родилась дочь, но вскоре после этого они развелись. Вернувшись в Нью-Йорк, он решает отправиться в Париж на пароходе. На борту он знакомится с Сабет (Дельпи), двадцатилетней очаровательной девушкой, возвращающейся домой после учебы в Штатах и читающей "Странника" Альбера Камю: "Извините, Вы сидите в моем шезлонге". Не признающий беллетристики Фабер поначалу тщательно не обращает на нее внимания, пока ее поразительная, невыносимо хрупкая красота не покоряет его. Любовь это, или родительский инстинкт, необоримая необходимость защитить и уберечь самое дорогое? Ответ не может быть однозначным. Вместе они совершают путешествие в Грецию...



Тип релиза: DVDRip
Контейнер: AVI
Видео: anamorph 16:9, 720x576, 25 fps, DivX Codec 6.9.2 ~1596 kbps avg, 0.15 bit/pixel
Аудио 1: Russian (Dolby AC3, 2 ch, 192 kbps)
Аудио 2: English (Dolby AC3, 2 ch, 192 kbps)
Аудио 3: Deutsch (Dolby AC3, 2 ch, 192 kbps)
Субтитры: Deutsch (SRT)
General
Complete name : Homo Faber.avi
Format : AVI
Format/Info : Audio Video Interleave
File size : 1.67 GiB
Duration : 1h 48mn
Overall bit rate : 2 194 Kbps

Video
ID : 0
Format : MPEG-4 Visual
Format settings, BVOP : Yes
Format settings, QPel : No
Format settings, GMC : No warppoints
Format settings, Matrix : Default (H.263)
Codec ID : DX50
Codec ID/Hint : DivX 5
Duration : 1h 48mn
Bit rate : 1 599 Kbps
Width : 720 pixels
Height : 576 pixels
Display aspect ratio : 16:9
Frame rate : 25.000 fps
Standard : PAL
Color space : YUV
Chroma subsampling : 4:2:0
Bit depth : 8 bits
Scan type : Progressive
Compression mode : Lossy
Bits/(Pixel*Frame) : 0.154
Stream size : 1.21 GiB (73%)
Writing library : DivX 6.8.5 (UTC 2009-08-20)

Audio #1
ID : 1
Format : AC-3
Format/Info : Audio Coding 3
Mode extension : CM (complete main)
Codec ID : 2000
Duration : 1h 48mn
Bit rate mode : Constant
Bit rate : 192 Kbps
Channel(s) : 2 channels
Channel positions : Front: L R
Sampling rate : 48.0 KHz
Bit depth : 16 bits
Compression mode : Lossy
Stream size : 149 MiB (9%)
Alignment : Split accross interleaves
Interleave, duration : 40 ms (1.00 video frame)
Interleave, preload duration : 500 ms

Audio #2
ID : 2
Format : AC-3
Format/Info : Audio Coding 3
Mode extension : CM (complete main)
Codec ID : 2000
Duration : 1h 48mn
Bit rate mode : Constant
Bit rate : 192 Kbps
Channel(s) : 2 channels
Channel positions : Front: L R
Sampling rate : 48.0 KHz
Bit depth : 16 bits
Compression mode : Lossy
Stream size : 149 MiB (9%)
Alignment : Split accross interleaves
Interleave, duration : 40 ms (1.00 video frame)
Interleave, preload duration : 500 ms

Audio #3
ID : 3
Format : AC-3
Format/Info : Audio Coding 3
Mode extension : CM (complete main)
Codec ID : 2000
Duration : 1h 48mn
Bit rate mode : Constant
Bit rate : 192 Kbps
Channel(s) : 2 channels
Channel positions : Front: L R
Sampling rate : 48.0 KHz
Bit depth : 16 bits
Compression mode : Lossy
Stream size : 149 MiB (9%)
Alignment : Split accross interleaves
Interleave, duration : 40 ms (1.00 video frame)
Interleave, preload duration : 500 ms















Скачать Путешественник.Voyager.Homo.Faber.(Фолькер.Шлендорфф).[1991.драма.DVDRip].[DVO]+[Sub]+[Оригинал].torrent без регистрации
Золото ЗОЛОТАЯ РАЗДАЧА! СКАЧАННОЕ НЕ ЗАСЧИТЫВАЕТСЯ! Золото
Дата: Зарегистрирован   [ Тип: внутренний ] Как тут cкачать?
MAGNET ссылка
MAGNET ссылка


Скачать .torrent

17 KB

Статус: проверено DHT
Скачан: торрент - 111 раз, раздача полностью - 5 раз
Размер: 1,67 GB
Оценка:  - (Голосов: 0)
Поблагодарили: 0
Поделиться ссылкой на эту раздачу с друзьями:
В контактеFacebookОдноклассникиTwitterLivejournalМой МирLiveinternet
 

 
Показать сообщения:    


Вы не можете начинать темы
Вы не можете отвечать на сообщения
Вы не можете редактировать свои сообщения
Вы не можете удалять свои сообщения
Вы не можете голосовать в опросах
Вы не можете прикреплять файлы к сообщениям
Вы можете скачивать файлы