Loading...
Error

Скачать Только не без моей дочери / Not Without My Daughter (Брайан Гилберт) [1991, драма, TVRip] [DVO] торрент без регистрации

 
Статистика раздачи
Размер:  2,7 GB   |    Скачан:  117 раз
Сидов:  1  [  0 KB/s  ]  
 
Автор Сообщение

Marsianka

[] 

Название: Только не без моей дочери
Оригинальное название: Not Without My Daughter
Жанр: драма
Год выпуска: 1991
Продолжительность: 01:51:03
Перевод: Профессиональный (двухголосый закадровый) (НТВ+)
Cубтитры: нет

Режиссер: Брайан Гилберт / Brian Gilbert

В ролях: Салли Филд, Альфред Молина, Шила Розенталь, Рошан Сет, Сара Бэдел, Мони Рей, Жорж Коррафас, Мэри Нелл Сантакрок, Эд Грейди, Брюс Иверс...

Описание: Героиня фильма, американка Бетти Махмуди, замужем за американским врачом-анестезиологом иранского происхождения доктором Махмуди. У них есть четырехлетняя дочь Матоб. У Муди начинаются проблемы на работе, и он решает съездить в Иран на две недели навестить родственников. Перед отъездом он клянется на священном Коране, что никогда не запретит жене с дочерью уехать обратно, как только они захотят...



Доп. информация:
сценарий - Betty Mahmoody, Уильям Хофнер, Дэвид В. Ринтелс
продюсеры - Гарри Дж. Уфлэнд, Мэри Джейн Уфлэнд, Энтони Вайе
оператор - Питер Хэннан
композитор - Джерри Голдсмит, Джакомо Пуччини
художники - Энтони Прэтт, Avishay Avivi, Десмонд Кроу



Качество видео: TVRip
Формат видео: MPEG-PS
Видео: MPEG2 Video, 720x576 (4:3) 25.00fps, ~3214, 0.310 bit/pixel
Аудио: MPEG Audio, 48000Hz, 2/0 (L,R) stereo, 192 Kbps

Сэмпл
Полное имя : G:DVDТолько с дочерью (1991)Not without my daughter.mpg
Формат : MPEG-PS
Размер файла : 2,70 Гбайт
Продолжительность : 1 ч. 51 м.
Общий поток : 3475 Кбит/сек
Видео
Идентификатор : 224 (0xE0)
Формат : MPEG Video
Версия формата : Version 2
Профиль формата : Main@Main
Параметр BVOP формата : Нет
Параметр матрицы формата : По умолчанию
Параметр GOP формата : M=1, N=12
Продолжительность : 1 ч. 51 м.
Вид битрейта : Переменный
Битрейт : 3214 Кбит/сек
Ширина : 720 пикселей
Высота : 576 пикселей
Соотношение сторон : 4:3
Частота кадров : 25,000 кадров/сек
Стандарт вещания : PAL
Цветовое пространство : YUV
Субдискретизация насыщенности : 4:2:0
Битовая глубина : 8 бит
Тип развёртки : Прогрессивная
Метод сжатия : С потерями
Бит/(Пиксели*Кадры) : 0.310
Размер потока : 2,49 Гбайт (92%)
Аудио
Идентификатор : 192 (0xC0)
Формат : MPEG Audio
Версия формата : Version 1
Профиль формата : Layer 2
Продолжительность : 1 ч. 51 м.
Вид битрейта : Постоянный
Битрейт : 192 Кбит/сек
Каналы : 2 канала
Частота : 48,0 КГц
Метод сжатия : С потерями
Размер потока : 153 Мбайт (6%)
Релиз от:



Скачать Только.не.без.моей.дочери.Not.Without.My.Daughter.(Брайан.Гилберт).[1991.драма.TVRip].[DVO].torrent без регистрации
Золото ЗОЛОТАЯ РАЗДАЧА! СКАЧАННОЕ НЕ ЗАСЧИТЫВАЕТСЯ! Золото
Дата: Зарегистрирован   [ Тип: внутренний ] Как тут cкачать?
MAGNET ссылка
MAGNET ссылка


Скачать .torrent

14 KB

Статус: проверено DHT
Скачан: торрент - 117 раз, раздача полностью - 8 раз
Размер: 2,7 GB
Оценка:  - (Голосов: 0)
Поблагодарили: 2
Поделиться ссылкой на эту раздачу с друзьями:
В контактеFacebookОдноклассникиTwitterLivejournalМой МирLiveinternet
 

 
Показать сообщения:    


Вы не можете начинать темы
Вы не можете отвечать на сообщения
Вы не можете редактировать свои сообщения
Вы не можете удалять свои сообщения
Вы не можете голосовать в опросах
Вы не можете прикреплять файлы к сообщениям
Вы можете скачивать файлы