Loading...
Error

Скачать Империя Солнца / Empire of the Sun (Стивен Спилберг) [1987, драма, военный, биография, BDRip-AVC] [Dub]+[Оригинал]+[Sub] торрент без регистрации

 
Статистика раздачи
Размер:  2,18 GB   |    Скачан:  135 раз
Сидов:  1  [  0 KB/s  ]  
 
Автор Сообщение

Marsianka

[] 

Империя Солнца / Empire of the Sun (1987) BDRip-AVC



Информация о фильме
Название: Империя Солнца
Оригинальное название: Empire of the Sun
Год выхода: 1987
Жанр: драма, военный, биография
Режиссер: Стивен Спилберг

В ролях: Кристиан Бэйл, Джон Малкович, Миранда Ричардсон, Найджел Хэверс, Джо Пантольяно, Лесли Филлипс, Масато Ибу, Эмили Ричард, Руперт Фрейзер, Питер Гэйл, Такаторо Катаока, Бен Стиллер, Дэвид Найдорф, Ральф Сеймур, Роберт Стивенс, Чжай Найшэ, Гуц Исимацу, Эмма Пайпер, Джеймс Уолкер, Анна Тернер, Энн Кастл, Ральф Майкл, Сибил Маас, Эрик Флинн...

О фильме: 1941 год, Вторая Мировая война. Юный англичанин Джим Грэхем живет в богатой семье в Китае. Японцы вторглись в Шанхай, Джим теряется в толпе и остается без родителей в захваченном городе. Во время скитаний находит друга Бэйзи, с которым попадает в лагерь заключенных.

Среди болезни и нехватки пищи, Джим борется за выживание, вынося предательства и оскорбления Нити, связывающие его с детством, ослабевают, но Джим пытается сохранить дух и достоинство. Япония капитулировала. Перенеся все ужасы войны, превратившись из счастливого ребенка в измученного подростка, он, наконец, встречается со своими родителями.



Страна: США
Продолжительность: 02:32:49
Перевод: Дублированный, Оригинал (Английский)

Файл
Кодек: h.264
Качество: BDRip-AVC
Видео: 960x540 (16:9), 23.976 fps, 1464 kbps, 0.118 bit/pixel
Аудио #1: 48 kHz, AC3 5.1, 384.00 kbps (Русский)
Аудио #2: 48 kHz, AC3 2.0, 192.00 kbps (Английский)
Субтитры: Русские, Английские (отключаемые)

&
Общее
Уникальный идентификатор : 238414354301635070372124010578122760724 (0xB35CEF35A21510EDAA34C6247975E214)
Полное имя : D:HDEmpire of the Sun.1987.BDRip-AVC.mkv
Формат : Matroska
Версия формата : Version 2
Размер файла : 2,18 Гбайт
Продолжительность : 2 ч. 32 м.
Общий поток : 2041 Кбит/сек
Название фильма : Империя Солнца / Empire of the Sun (1987) BDRip-AVC rip by Rulya74
Дата кодирования : UTC 2012-11-08 19:06:14
Программа кодирования : mkvmerge v5.7.0 ('The Whirlwind') built on Jul 8 2012 20:08:51
Библиотека кодирования : libebml v1.2.3 + libmatroska v1.3.0

Видео
Идентификатор : 1
Формат : AVC
Формат/Информация : Advanced Video Codec
Профиль формата : High@L4.1
Параметр CABAC формата : Да
Параметр ReFrames формата : 10 кадров
Идентификатор кодека : V_MPEG4/ISO/AVC
Продолжительность : 2 ч. 32 м.
Битрейт : 1464 Кбит/сек
Ширина : 960 пикселей
Высота : 540 пикселей
Соотношение сторон : 16:9
Частота кадров : 23,976 кадра/сек
Цветовое пространство : YUV
Субдискретизация насыщенности : 4:2:0
Битовая глубина : 8 бит
Тип развёртки : Прогрессивная
Бит/(Пиксели*Кадры) : 0.118
Размер потока : 1,52 Гбайт (70%)
Библиотека кодирования : x264 core 128 r2216 198a7ea
Настройки программы : cabac=1 / ref=10 / deblock=1:-2:-1 / analyse=0x3:0x133 / me=umh / subme=10 / psy=1 / psy_rd=1.10:0.10 / mixed_ref=1 / me_range=48 / chroma_me=1 / trellis=2 / 8x8dct=1 / cqm=0 / deadzone=21,11 / fast_pskip=0 / chroma_qp_offset=-3 / threads=2 / lookahead_threads=1 / sliced_threads=0 / nr=0 / decimate=1 / interlaced=0 / bluray_compat=0 / constrained_intra=0 / bframes=6 / b_pyramid=2 / b_adapt=2 / b_bias=0 / direct=3 / weightb=1 / open_gop=0 / weightp=2 / keyint=230 / keyint_min=23 / scenecut=40 / intra_refresh=0 / rc_lookahead=40 / rc=2pass / mbtree=1 / bitrate=1464 / ratetol=1.0 / qcomp=0.60 / qpmin=10 / qpmax=51 / qpstep=4 / cplxblur=20.0 / qblur=0.5 / ip_ratio=1.40 / aq=2:1.00
Default : Да
Forced : Нет

Аудио #1
Идентификатор : 2
Формат : AC-3
Формат/Информация : Audio Coding 3
Расширение режима : CM (complete main)
Идентификатор кодека : A_AC3
Продолжительность : 2 ч. 32 м.
Вид битрейта : Постоянный
Битрейт : 384 Кбит/сек
Каналы : 6 каналов
Расположение каналов : Front: L C R, Side: L R, LFE
Частота : 48,0 КГц
Битовая глубина : 16 бит
Метод сжатия : С потерями
Размер потока : 420 Мбайт (19%)
Заголовок : Дублированный
Язык : Russian
Default : Да
Forced : Нет

Аудио #2
Идентификатор : 3
Формат : AC-3
Формат/Информация : Audio Coding 3
Расширение режима : CM (complete main)
Идентификатор кодека : A_AC3
Продолжительность : 2 ч. 32 м.
Вид битрейта : Постоянный
Битрейт : 192 Кбит/сек
Каналы : 2 канала
Расположение каналов : Front: L R
Частота : 48,0 КГц
Битовая глубина : 16 бит
Метод сжатия : С потерями
Размер потока : 210 Мбайт (9%)
Заголовок : Оригинал
Язык : English
Default : Нет
Forced : Нет

Текст #1
Идентификатор : 4
Формат : UTF-8
Идентификатор кодека : S_TEXT/UTF8
Идентификатор кодека/Информация : UTF-8 Plain Text
Язык : Russian
Default : Нет
Forced : Нет

Текст #2
Идентификатор : 5
Формат : UTF-8
Идентификатор кодека : S_TEXT/UTF8
Идентификатор кодека/Информация : UTF-8 Plain Text
Заголовок : SDH
Язык : English
Default : Нет
Forced : Нет

Меню
00:00:00.000 : en:Foreword
00:01:14.574 : en:The Choirboy
00:04:19.717 : en:Luckier
00:07:44.380 : en:Upward Dreams
00:09:22.520 : en:Partygoer Procession
00:13:19.215 : en:Hospitality
00:15:32.222 : en:Engaging the Enemy
00:20:46.286 : en:Shanghai: December 8, 1941
00:23:34.996 : en:Lost in the Crowd
00:28:02.764 : en:Plunderers
00:32:15.141 : en:Home Alone
00:36:41.240 : en:English Boy Surrenders
00:41:46.253 : en:Making Frank's Acquaintance
00:43:50.044 : en:Shanghai Jim
00:49:00.854 : en:Journey to Opulence
00:52:23.932 : en:New Occupants
00:54:19.256 : en:Chow Time
01:01:03.910 : en:The Truck to Soochow
01:05:38.392 : en:One With the Planes
01:08:21.097 : en:Kindred Spirits
01:09:55.858 : en:Tricks of the Trade
01:13:44.837 : en:The Antidote
01:16:20.701 : en:New World: Pragmatist
01:20:20.315 : en:The University of Life
01:24:16.509 : en:Night Bombing
01:26:56.586 : en:Reprisal
01:30:19.455 : en:Setting the Traps
01:37:04.902 : en:In America Now
01:39:23.958 : en:Nagata's Revenge on Basie
01:42:58.839 : en:Lords of the Yangtze
01:47:11.007 : en:Basie Returns
01:48:50.440 : en:Kamikaze Dawn
01:52:21.234 : en:Bombs and Rapture
01:57:23.411 : en:Return to the British Dorm
01:59:08.641 : en:Broken Promise
02:01:27.571 : en:Failed Mission
02:03:14.428 : en:March to Nantao
02:05:00.451 : en:The Olympic Stadium
02:07:16.003 : en:"Pretend You're Dead"
02:09:11.910 : en:Heavenly Light
02:12:12.007 : en:Reunions
02:16:22.299 : en:"I Can Bring Everyone Back"
02:20:10.276 : en:"I Surrender"
02:22:10.772 : en:Tired Eyes
02:26:17.810 : en:End Credits



Скачать Империя.Солнца.Empire.of.the.Sun.(Стивен.Спилберг).[1987.драма.военный.биография.BDRip-AVC].[Dub]+[Оригинал]+[Sub].torrent без регистрации
Золото ЗОЛОТАЯ РАЗДАЧА! СКАЧАННОЕ НЕ ЗАСЧИТЫВАЕТСЯ! Золото
Дата: Зарегистрирован   [ Тип: внутренний ] Как тут cкачать?
MAGNET ссылка
MAGNET ссылка


Скачать .torrent

11 KB

Статус: проверено DHT
Скачан: торрент - 135 раз, раздача полностью - 99 раз
Размер: 2,18 GB
Оценка:  5 (Голосов: 3)
Поблагодарили: 6
Поделиться ссылкой на эту раздачу с друзьями:
В контактеFacebookОдноклассникиTwitterLivejournalМой МирLiveinternet
 

 
Показать сообщения:    


Вы не можете начинать темы
Вы не можете отвечать на сообщения
Вы не можете редактировать свои сообщения
Вы не можете удалять свои сообщения
Вы не можете голосовать в опросах
Вы не можете прикреплять файлы к сообщениям
Вы можете скачивать файлы