Loading...
Error

Скачать Спартак: Месть / Spartacus: Vengeance (сезон 2, серия 1-10 из 10) [2012, Драма, Фэнтези, HDTVRip] [MVO] (LostFilm) торрент без регистрации

 
Статистика раздачи
Размер:  4,37 GB   |    Скачан:  422 раза
Сидов:  1  [  0 KB/s  ]  
 
Автор Сообщение

proljot2615

[] 


Спартак: Месть / Spartacus: Vengeance


Год выпуска: 2012
Выпущено: США | USA
Жанр: Драма, Фэнтези
Продолжительность: 00:55:00
Сезон: 2
Серия: 1-10
Количество серий в сезоне: 10
Перевод: Профессиональный (многоголосый) (LostFilm)

Режиссер: Майкл Херст / Michael Hurst

В ролях: Лиам Макинтайр, Ману Беннетт, Люси Лоулесс, Питер Менса, Дастин Клер, Крейг Паркер, Катрина Лоу, Ник Тарабэй, Вива Бьянка, Синтия Аддаи-Робинсон, Ден Фойерригель, Том Хоббс, Ханна Манган Лоуренс

Описание: Легенда о фракийском воине Спартаке, попавшем в рабство к римлянам, ставшим гладиатором и возглавившим одно из самых массовых восстаний рабов в Древнем Риме - известна всем ещё со школьной скамьи. Создатели сериала дают нам возможность вновь окунуться в атмосферу античности и помогают древней легенде буквально заиграть новыми красками, с применением новейших технологий кинематографии.







Качество: HDTVRip
Формат: AVI
Видео кодек: XviD
Аудио кодек: AC3
Видео: 720x400 (1.80:1), 23.976 fps, XviD MPEG-4 ~1000 kbps avg, ~0.14 bit/pixel
Аудио: 48 kHz, AC3 Dolby Digital, 2/0 (L,R) ch, ~128 kbps




Формат : AVI
Формат/Информация : Audio Video Interleave
Размер файла : 447 Мбайт
Продолжительность : 56 м.
Общий поток : 1109 Кбит/сек
Библиотека кодирования : VirtualDub build 30091/release

Видео
Идентификатор : 0
Формат : MPEG-4 Visual
Профиль формата : Advanced Simple@L5
Параметр BVOP формата : 2
Параметр QPel формата : Нет
Параметр GMC формата : Без точки перехода
Параметр матрицы формата : Default (H.263)
Режим смешивания : Сжатый битовый поток
Идентификатор кодека : XVID
Идентификатор кодека/Подсказка : XviD
Продолжительность : 56 м.
Битрейт : 971 Кбит/сек
Ширина : 720 пикс.
Высота : 400 пикс.
Соотношение сторон : 16:9
Частота кадров : 23,976 кадр/сек
Цветовое пространство : YUV
Подвыборка цветности : 4:2:0
Битовая глубина : 8 бит
Тип развёртки : Прогрессивная
Метод сжатия : С потерями
Бит/(Пиксели*Кадры) : 0.141
Размер потока : 392 Мбайт (88%)
Библиотека кодирования : XviD 64

Аудио
Идентификатор : 1
Формат : AC-3
Формат/Информация : Audio Coding 3
Расширение режима : CM (complete main)
Идентификатор кодека : 2000
Продолжительность : 56 м.
Вид битрейта : Постоянный
Битрейт : 128 Кбит/сек
Каналы : 2 канала
Расположение каналов : Front: L R
Частота : 48,0 КГц
Битовая глубина : 16 бит
Метод сжатия : С потерями
Размер потока : 51,7 Мбайт (12%)
Выравнивание : Соединение по промежуткам
Продолжительность промежутка : 42 мс. (1,00 видеокадр)
Время предзагрузки промежутка : 512 ms




01 Беглый (Fugitivus)
02 Место в этом мире (A Place in this World)
03 Высшее благо (The Greater Good)
04 Пустые руки (Empty Hands)
05 Вольный (Libertus)
06 Избранный путь (Chosen Path)
07 Клятва (Sacramentum)
08 Чаши весов (Balance)
09 Чудовища (Monsters)
10 Гнев богов (Wrath of the Gods)





Скачать Спартак.Месть.Spartacus.Vengeance.(сезон.2.серия.1-10.из.10).[2012.Драма.Фэнтези.HDTVRip].[MVO].(LostFilm).torrent без регистрации
Золото ЗОЛОТАЯ РАЗДАЧА! СКАЧАННОЕ НЕ ЗАСЧИТЫВАЕТСЯ! Золото
Дата: Зарегистрирован   [ Тип: внутренний ] Как тут cкачать?
MAGNET ссылка
MAGNET ссылка


Скачать .torrent

12 KB

Статус: проверено DHT
Скачан: торрент - 422 раз, раздача полностью - 1314 раз
Размер: 4,37 GB
Оценка:  4,5 (Голосов: 2)
Поблагодарили: 7
Поделиться ссылкой на эту раздачу с друзьями:
В контактеFacebookОдноклассникиTwitterLivejournalМой МирLiveinternet
 

 

olegius88

[] 

это первый сезон
 

kotofei79

[] 

нет последний
 
Показать сообщения:    


Вы не можете начинать темы
Вы не можете отвечать на сообщения
Вы не можете редактировать свои сообщения
Вы не можете удалять свои сообщения
Вы не можете голосовать в опросах
Вы не можете прикреплять файлы к сообщениям
Вы можете скачивать файлы