Loading...
Error

Скачать В погоне за счастьем / The Pursuit of Happyness (Габриэле Муччино) [2006, драма, биография, HDRip] [Dub] торрент без регистрации

 
Статистика раздачи
Размер:  745 MB   |    Скачан:  184 раза

Полного источника не было: 27 минут

 
Автор Сообщение

Marsianka

[] 

Информация о фильме
Название: В погоне за счастьем
Оригинальное название: The Pursuit of Happyness
Год выхода: 2006
Жанр: драма, биография
Режиссер: Габриэле Муччино / Gabriele Muccino
В ролях: Уилл Смит, Джейден Смит, Тэнди Ньютон, Брайан Хоу, Джеймс Карен, Дэн Кастелланета, Курт Фуллер, Такайо Фишер, Кевин Уэст, Джордж Чунг

О фильме:
Крис Гарднер отец одиночка. Воспитывая пятилетнего сына, Крис изо всех сил старается сделать так, чтобы ребенок рос счастливым. Работая продавцом, он не может оплатить квартиру, и их выселяют.

Оказавшись на улице, но не желая сдаваться, отец устраивается специалистом в брокерскую компанию. Только и там его доходы далеки от нормальных. Но Крис поклялся себе во что бы то ни стало вырастить сына, и никакие трудности его не остановят.



Страна: США
Студия: Relativity Media, Overbrook Entertainment, Escape Artists
Продолжительность: 01:57:20
Перевод: Профессиональный (полное дублирование)

Файл
Кодек: XviD / MP3
Качество: HDRip
Видео: XviD, 720x304 (2.35:1), 23.976 fps, 751 Kbps (0.143 bit/pixel)
Звук: MP3, 48.0 KHz, 2 ch, 128 Kbps, CBR
General
Complete name : D:WorkThe.Pursuit.of.Happyness_HDRip.745_[Rutor.org].avi
Format : AVI
Format/Info : Audio Video Interleave
File size : 745 MiB
Duration : 1h 57mn
Overall bit rate : 888 Kbps
Writing application : VirtualDubMod 1.5.10.2 (build 2540/release)
Writing library : VirtualDubMod build 2540/release

Video
ID : 0
Format : MPEG-4 Visual
Format profile : Advanced Simple@L5
Format settings, BVOP : 1
Format settings, QPel : No
Format settings, GMC : No warppoints
Format settings, Matrix : Default (MPEG)
Codec ID : XVID
Codec ID/Hint : XviD
Duration : 1h 57mn
Bit rate : 751 Kbps
Width : 720 pixels
Height : 304 pixels
Display aspect ratio : 2.35:1
Frame rate : 23.976 fps
Color space : YUV
Chroma subsampling : 4:2:0
Bit depth : 8 bits
Scan type : Progressive
Compression mode : Lossy
Bits/(Pixel*Frame) : 0.143
Stream size : 630 MiB (85%)
Writing library : XviD 1.2.0.dev47 (UTC 2006-11-01)

Audio
ID : 1
Format : MPEG Audio
Format version : Version 1
Format profile : Layer 3
Codec ID : 55
Codec ID/Hint : MP3
Duration : 1h 57mn
Bit rate mode : Constant
Bit rate : 128 Kbps
Channel(s) : 2 channels
Sampling rate : 48.0 KHz
Compression mode : Lossy
Stream size : 107 MiB (14%)
Alignment : Aligned on interleaves
Interleave, duration : 42 ms (1.00 video frame)
Interleave, preload duration : 504 ms
Writing library : LAME3.97
Encoding settings : -m s -V 4 -q 2 -lowpass 17 -b 128



Скачать В.погоне.за.счастьем.The.Pursuit.of.Happyness.(Габриэле.Муччино).[2006.драма.биография.HDRip].[Dub].torrent без регистрации
Золото ЗОЛОТАЯ РАЗДАЧА! СКАЧАННОЕ НЕ ЗАСЧИТЫВАЕТСЯ! Золото
Дата: Зарегистрирован   [ Тип: внутренний ] Как тут cкачать?
MAGNET ссылка
MAGNET ссылка


Скачать .torrent

15 KB

Статус: проверено DHT
Скачан: торрент - 184 раз, раздача полностью - 311 раз
Размер: 745 MB
Оценка:  5 (Голосов: 1)
Поблагодарили: 5
Поделиться ссылкой на эту раздачу с друзьями:
В контактеFacebookОдноклассникиTwitterLivejournalМой МирLiveinternet
 

 
Показать сообщения:    


Вы не можете начинать темы
Вы не можете отвечать на сообщения
Вы не можете редактировать свои сообщения
Вы не можете удалять свои сообщения
Вы не можете голосовать в опросах
Вы не можете прикреплять файлы к сообщениям
Вы можете скачивать файлы