Loading...
Error

Скачать Миллионер из трущоб / Slumdog Millionaire (Дэнни Бойл, Лавлин Тандан) [2008, триллер, драма, мелодрама, криминал, BDRip-AVC] [Dub] торрент без регистрации

 
Статистика раздачи
Размер:  1,44 GB   |    Скачан:  190 раз

Полного источника не было: 20 минут

 
Автор Сообщение

МихаНЕзатор

[] 

Миллионер из трущоб / Slumdog Millionaire (2008) BDRip-AVC



Информация о фильме
Название: Миллионер из трущоб
Оригинальное название: Slumdog Millionaire
Год выхода: 2008
Жанр: триллер, драма, мелодрама, криминал
Режиссер: Дэнни Бойл, Лавлин Тандан

В ролях: Дев Патель, Фрида Пинто, Анил Капур, Саурабх Шукла, Махеш Манджрекар, Ирфан Кхан, Мадхур Миттал, Рахендранат Зутши, Женева Талвар, Ажаруддин Мохаммед Измаил

О фильме: Джамал Малик, 18-летний сирота из трущоб в Мумбаи, всего в одном шаге от победы в телеигре «Кто хочет стать миллионером?» и выигрыша 20 миллионов рупий. Прервав игру, его арестовывает полиция по подозрению в мошенничестве. Откуда юнец, выросший на улице, может знать так много?

На допросе в полиции Джамал рассказывает печальную историю своей жизни: о пережитых приключениях вместе с братом, о стычках с местными бандами, о своей трагической любви. Каждая глава личной истории удивительным образом дала ему ответы на вопросы телевикторины. Когда игру возобновят, инспектору полиции и шестидесяти миллионам зрителей захочется выяснить ответ только на один вопрос: зачем этот юноша, без явного стремления к богатству, решил принять участие в телепрограмме?



Страна: Великобритания
Продолжительность: 02:00:04
Перевод: Дублированный

Файл
Кодек: h.264
Качество: BDRip-AVC
Видео: 1024x432 (2,35:1), 23.976 fps, 1335 kbps, 0.126 bit/pixel
Звук: 48 kHz, AC3 5.1, 384.00 kbps
Субтитры: Русские (отключаемые)
Общее
Уникальный идентификатор : 225900955069005581315132227770515319388 (0xA9F2F0FE7F1604D7B9B8EBB9912DEA5C)
Полное имя : D:Slumdog Millionaire.2008.BDRip-AVC.mkv
Формат : Matroska
Версия формата : Version 2
Размер файла : 1,44 Гбайт
Продолжительность : 2 ч. 0 м.
Общий поток : 1720 Кбит/сек
Название фильма : Миллионер из трущоб / Slumdog Millionaire (2008) BDRip-AVC rip by Rulya74
Дата кодирования : UTC 2012-11-12 08:33:11
Программа кодирования : mkvmerge v5.7.0 ('The Whirlwind') built on Jul 8 2012 20:08:51
Библиотека кодирования : libebml v1.2.3 + libmatroska v1.3.0

Видео
Идентификатор : 1
Формат : AVC
Формат/Информация : Advanced Video Codec
Профиль формата : High@L4.1
Параметр CABAC формата : Да
Параметр ReFrames формата : 12 кадров
Идентификатор кодека : V_MPEG4/ISO/AVC
Продолжительность : 2 ч. 0 м.
Битрейт : 1335 Кбит/сек
Ширина : 1024 пикселя
Высота : 432 пикселя
Соотношение сторон : 2,35:1
Частота кадров : 23,976 кадра/сек
Цветовое пространство : YUV
Субдискретизация насыщенности : 4:2:0
Битовая глубина : 8 бит
Тип развёртки : Прогрессивная
Бит/(Пиксели*Кадры) : 0.126
Размер потока : 1,09 Гбайт (76%)
Библиотека кодирования : x264 core 129 r2230 1cffe9f
Настройки программы : cabac=1 / ref=12 / deblock=1:-2:-1 / analyse=0x3:0x133 / me=umh / subme=10 / psy=1 / psy_rd=1.11:0.08 / mixed_ref=1 / me_range=32 / chroma_me=1 / trellis=2 / 8x8dct=1 / cqm=0 / deadzone=21,11 / fast_pskip=0 / chroma_qp_offset=-3 / threads=2 / lookahead_threads=1 / sliced_threads=0 / nr=0 / decimate=1 / interlaced=0 / bluray_compat=0 / constrained_intra=0 / bframes=5 / b_pyramid=2 / b_adapt=2 / b_bias=0 / direct=3 / weightb=1 / open_gop=0 / weightp=2 / keyint=230 / keyint_min=23 / scenecut=40 / intra_refresh=0 / rc_lookahead=40 / rc=2pass / mbtree=1 / bitrate=1335 / ratetol=1.0 / qcomp=0.60 / qpmin=10 / qpmax=51 / qpstep=4 / cplxblur=20.0 / qblur=0.5 / ip_ratio=1.40 / aq=2:1.00
Default : Да
Forced : Нет

Аудио
Идентификатор : 2
Формат : AC-3
Формат/Информация : Audio Coding 3
Расширение режима : CM (complete main)
Идентификатор кодека : A_AC3
Продолжительность : 2 ч. 0 м.
Вид битрейта : Постоянный
Битрейт : 384 Кбит/сек
Каналы : 6 каналов
Расположение каналов : Front: L C R, Side: L R, LFE
Частота : 48,0 КГц
Битовая глубина : 16 бит
Метод сжатия : С потерями
Размер потока : 330 Мбайт (22%)
Заголовок : Дублированный
Язык : Russian
Default : Да
Forced : Нет

Текст
Идентификатор : 3
Формат : UTF-8
Идентификатор кодека : S_TEXT/UTF8
Идентификатор кодека/Информация : UTF-8 Plain Text
Язык : Russian
Default : Да
Forced : Нет

Меню
00:00:00.000 : :Chapter 01
00:09:20.935 : :Chapter 02
00:20:26.975 : :Chapter 03
00:28:14.734 : :Chapter 04
00:37:57.608 : :Chapter 05
00:46:08.557 : :Chapter 06
00:52:03.995 : :Chapter 07
01:01:58.256 : :Chapter 08
01:07:21.704 : :Chapter 09
01:12:18.625 : :Chapter 10
01:17:52.668 : :Chapter 11
01:24:22.474 : :Chapter 12
01:33:07.206 : :Chapter 13
01:39:33.092 : :Chapter 14
01:48:49.356 : :Chapter 15
01:52:55.977 : :Chapter 16
02:00:03.863 : :Chapter 17



Скачать Миллионер.из.трущоб.Slumdog.Millionaire.(Дэнни.Бойл.Лавлин.Тандан).[2008.триллер.драма.мелодрама.криминал.BDRip-AVC].[Dub].torrent без регистрации
Золото ЗОЛОТАЯ РАЗДАЧА! СКАЧАННОЕ НЕ ЗАСЧИТЫВАЕТСЯ! Золото
Дата: Зарегистрирован   [ Тип: внутренний ] Как тут cкачать?
MAGNET ссылка
MAGNET ссылка


Скачать .torrent

15 KB

Статус: проверено DHT
Скачан: торрент - 190 раз, раздача полностью - 173 раз
Размер: 1,44 GB
Оценка:  5 (Голосов: 2)
Поблагодарили: 4
Поделиться ссылкой на эту раздачу с друзьями:
В контактеFacebookОдноклассникиTwitterLivejournalМой МирLiveinternet
 

 

leon030982

[] 

бесподобный фильм ay побольше бы таких фильмов
 
Показать сообщения:    


Вы не можете начинать темы
Вы не можете отвечать на сообщения
Вы не можете редактировать свои сообщения
Вы не можете удалять свои сообщения
Вы не можете голосовать в опросах
Вы не можете прикреплять файлы к сообщениям
Вы можете скачивать файлы