Loading...
Error

Скачать Отступники / The Departed (Мартин Скорсезе) [2006, триллер, криминал, BDRip-AVC] [Dub]+[DVO]+[AVO]+[Sub] торрент без регистрации

 
Статистика раздачи
Размер:  4,93 GB   |    Скачан:  138 раз
Сидов:  1  [  0 KB/s  ]  
 
Автор Сообщение

Marsianka

[] 

Информация о фильме
Название: Отступники
Оригинальное название: The Departed
Год выхода: 2006
Жанр: триллер, криминал
Режиссер: Мартин Скорсезе
В ролях: Леонардо ДиКаприо, Мэтт Дэймон, Джек Николсон, Марк Уолберг, Мартин Шин, Рэй Уинстон, Алек Болдуин, Кевин Корриган, Энтони Андерсон, Фармига Вера

О фильме:
Полиция Бостона засылает своего агента под прикрытием в крупнейшую ирландскую мафиозную группировку, орудующую в штате. Тем временем ирландцы внедряют самого перспективного бойца в ряды полиции. Задача обоих быть глазами и ушами своих боссов в стане врага. Но долго так продолжаться не может: обе стороны понимают, что в их рядах предатель. Разоблачение приведет к кровавой бойне, да и самим агентам теперь не так просто подставить под удар своих новых «коллег»...



Страна: США, Гонконг, Initial Entertainment Group (IEG), Media Asia Films Ltd., МОСФИЛЬМ-мастер, Plan B Entertainment, Vertigo Entertainment, Warner Bros. Pictures Co.
Продолжительность: 02:31:18
Перевод: Дублированный, профессиональный двухголосый, авторский одноголосый
Субтитры: Русские, английские
Дата релиза: 11.11.2012

Файл
Кодек: H.264
Качество: BDRip (AVC) (BDRemux (1080p))
Видео: MPEG-4 AVC, 2099 Kбит/с, 1024x426, 23.976 кадр/с
Звук:
Аудио 1: Русский (AC3, 6 ch, 448 Кбит/с) - Дублированный
Аудио 2: Русский (AC3, 6 ch, 448 Кбит/с) - профессиональный двухголосый (П.Гланц и И.Королева)
Аудио 3: Русский (AC3, 6 ch, 448 Кбит/с) - авторский одноголосый (Немахов)
Аудио 4: Русский (AC3, 6 ch, 384 Кбит/с) - авторский одноголосый (Гаврилов)
Аудио 5: Украинский (AC3, 3 ch, 384 Кбит/с)
Аудио 6: Английский (AC3, 6 ch, 448 Кбит/с)
Общее
Уникальный идентификатор : 249669470001995002983855001327800869985 (0xBBD49741CA07FE88866AE62A234AE461)
Полное имя : G:1Otstupniki.2006.x264.BDRip.(AVC).ExKinoRay.mkv
Формат : Matroska
Версия формата : Version 2
Размер файла : 4,93 Гбайт
Продолжительность : 2 ч. 31 м.
Общий поток : 4662 Кбит/сек
Название фильма : Otstupniki.2006.x264.BDRip.(AVC).ExKinoRay
Дата кодирования : UTC 2012-11-11 17:29:29
Программа кодирования : mkvmerge v4.0.0 ('The Stars were mine') сборка от Jun 6 2010 16:18:42
Библиотека кодирования : libebml v1.0.0 + libmatroska v1.0.0

Видео
Идентификатор : 1
Формат : AVC
Формат/Информация : Advanced Video Codec
Профиль формата : High@L4.1
Параметр CABAC формата : Да
Параметр ReFrames формата : 8 кадров
Идентификатор кодека : V_MPEG4/ISO/AVC
Продолжительность : 2 ч. 31 м.
Битрейт : 2099 Кбит/сек
Ширина : 1024 пикселя
Высота : 426 пикселей
Соотношение сторон : 2,40:1
Частота кадров : 23,976 кадра/сек
Цветовое пространство : YUV
Субдискретизация насыщенности : 4:2:0
Битовая глубина : 8 бит
Тип развёртки : Прогрессивная
Бит/(Пиксели*Кадры) : 0.201
Размер потока : 2,12 Гбайт (43%)
Заголовок : Rip by Enigma
Библиотека кодирования : x264 core 116 r2074 2641b9e
Настройки программы : cabac=1 / ref=8 / deblock=1:-2:-2 / analyse=0x3:0x133 / me=umh / subme=11 / psy=1 / psy_rd=1.00:0.00 / mixed_ref=1 / me_range=48 / chroma_me=1 / trellis=2 / 8x8dct=1 / cqm=0 / deadzone=21,11 / fast_pskip=0 / chroma_qp_offset=-2 / threads=3 / sliced_threads=0 / nr=0 / decimate=0 / interlaced=0 / bluray_compat=0 / constrained_intra=0 / bframes=8 / b_pyramid=2 / b_adapt=2 / b_bias=0 / direct=3 / weightb=1 / open_gop=0 / weightp=2 / keyint=240 / keyint_min=23 / scenecut=40 / intra_refresh=0 / rc=2pass / mbtree=0 / bitrate=2099 / ratetol=1.0 / qcomp=0.60 / qpmin=10 / qpmax=51 / qpstep=4 / cplxblur=20.0 / qblur=0.5 / ip_ratio=1.40 / pb_ratio=1.30 / aq=2:1.00
Язык : English
Default : Нет
Forced : Нет

Аудио #1
Идентификатор : 2
Формат : AC-3
Формат/Информация : Audio Coding 3
Расширение режима : CM (complete main)
Идентификатор кодека : A_AC3
Продолжительность : 2 ч. 31 м.
Вид битрейта : Постоянный
Битрейт : 448 Кбит/сек
Каналы : 6 каналов
Расположение каналов : Front: L C R, Side: L R, LFE
Частота : 48,0 КГц
Битовая глубина : 16 бит
Метод сжатия : С потерями
Размер потока : 485 Мбайт (10%)
Заголовок : Дублированный
Язык : Russian
Default : Да
Forced : Нет

Аудио #2
Идентификатор : 3
Формат : AC-3
Формат/Информация : Audio Coding 3
Расширение режима : CM (complete main)
Идентификатор кодека : A_AC3
Продолжительность : 2 ч. 31 м.
Вид битрейта : Постоянный
Битрейт : 448 Кбит/сек
Каналы : 6 каналов
Расположение каналов : Front: L C R, Side: L R, LFE
Частота : 48,0 КГц
Битовая глубина : 16 бит
Метод сжатия : С потерями
Размер потока : 485 Мбайт (10%)
Заголовок : двухголосый (П.Гланц и И.Королева)
Язык : Russian
Default : Нет
Forced : Нет

Аудио #3
Идентификатор : 4
Формат : AC-3
Формат/Информация : Audio Coding 3
Расширение режима : CM (complete main)
Идентификатор кодека : A_AC3
Продолжительность : 2 ч. 31 м.
Вид битрейта : Постоянный
Битрейт : 448 Кбит/сек
Каналы : 6 каналов
Расположение каналов : Front: L C R, Side: L R, LFE
Частота : 48,0 КГц
Битовая глубина : 16 бит
Метод сжатия : С потерями
Размер потока : 485 Мбайт (10%)
Заголовок : авторский одноголосый (Немахов)
Язык : Russian
Default : Нет
Forced : Нет

Аудио #4
Идентификатор : 5
Формат : AC-3
Формат/Информация : Audio Coding 3
Расширение режима : CM (complete main)
Идентификатор кодека : A_AC3
Продолжительность : 2 ч. 31 м.
Вид битрейта : Постоянный
Битрейт : 384 Кбит/сек
Каналы : 6 каналов
Расположение каналов : Front: L C R, Side: L R, LFE
Частота : 48,0 КГц
Битовая глубина : 16 бит
Метод сжатия : С потерями
Размер потока : 416 Мбайт (8%)
Заголовок : авторский одноголосый (Гаврилов)
Язык : Russian
Default : Нет
Forced : Нет

Аудио #5
Идентификатор : 6
Формат : AC-3
Формат/Информация : Audio Coding 3
Расширение режима : CM (complete main)
Идентификатор кодека : A_AC3
Продолжительность : 2 ч. 31 м.
Вид битрейта : Постоянный
Битрейт : 384 Кбит/сек
Каналы : 3 канала
Расположение каналов : Front: L R, LFE
Частота : 48,0 КГц
Битовая глубина : 16 бит
Метод сжатия : С потерями
Размер потока : 416 Мбайт (8%)
Заголовок : украинский
Default : Нет
Forced : Нет

Аудио #6
Идентификатор : 7
Формат : AC-3
Формат/Информация : Audio Coding 3
Расширение режима : CM (complete main)
Идентификатор кодека : A_AC3
Продолжительность : 2 ч. 31 м.
Вид битрейта : Постоянный
Битрейт : 448 Кбит/сек
Каналы : 6 каналов
Расположение каналов : Front: L C R, Side: L R, LFE
Частота : 48,0 КГц
Битовая глубина : 16 бит
Метод сжатия : С потерями
Размер потока : 485 Мбайт (10%)
Заголовок : английский
Язык : English
Default : Нет
Forced : Нет

Текст #1
Идентификатор : 8
Формат : UTF-8
Идентификатор кодека : S_TEXT/UTF8
Идентификатор кодека/Информация : UTF-8 Plain Text
Язык : Russian
Default : Да
Forced : Нет

Текст #2
Идентификатор : 9
Формат : UTF-8
Идентификатор кодека : S_TEXT/UTF8
Идентификатор кодека/Информация : UTF-8 Plain Text
Язык : English
Default : Нет
Forced : Нет

Меню
00:00:00.000 : en:Chapter 01
00:05:00.000 : en:Chapter 02
00:10:00.000 : en:Chapter 03
00:15:00.000 : en:Chapter 04
00:20:00.000 : en:Chapter 05
00:25:00.000 : en:Chapter 06
00:30:00.000 : en:Chapter 07
00:35:00.000 : en:Chapter 08
00:40:00.000 : en:Chapter 09
00:45:00.000 : en:Chapter 10
00:50:00.000 : en:Chapter 11
00:55:00.000 : en:Chapter 12
01:00:00.000 : en:Chapter 13
01:05:00.000 : en:Chapter 14
01:10:00.000 : en:Chapter 15
01:15:00.000 : en:Chapter 16
01:20:00.000 : en:Chapter 17
01:25:00.000 : en:Chapter 18
01:30:00.000 : en:Chapter 19
01:35:00.000 : en:Chapter 20
01:40:00.000 : en:Chapter 21
01:45:00.000 : en:Chapter 22
01:50:00.000 : en:Chapter 23
01:55:00.000 : en:Chapter 24
02:00:00.000 : en:Chapter 25
02:05:00.000 : en:Chapter 26
02:10:00.000 : en:Chapter 27
02:15:00.000 : en:Chapter 28
02:20:00.000 : en:Chapter 29
02:25:00.000 : en:Chapter 30
02:30:00.000 : en:Chapter 31
Семпл Релиз от:

Авторы релиза:



Скачать Отступники.The.Departed.(Мартин.Скорсезе).[2006.триллер.криминал.BDRip-AVC].[Dub]+[DVO]+[AVO]+[Sub].torrent без регистрации
Золото ЗОЛОТАЯ РАЗДАЧА! СКАЧАННОЕ НЕ ЗАСЧИТЫВАЕТСЯ! Золото
Дата: Зарегистрирован   [ Тип: внутренний ] Как тут cкачать?
MAGNET ссылка
MAGNET ссылка


Скачать .torrent

25 KB

Статус: проверено DHT
Скачан: торрент - 138 раз, раздача полностью - 156 раз
Размер: 4,93 GB
Оценка:  5 (Голосов: 1)
Поблагодарили: 6
Поделиться ссылкой на эту раздачу с друзьями:
В контактеFacebookОдноклассникиTwitterLivejournalМой МирLiveinternet
 

 
Показать сообщения:    


Вы не можете начинать темы
Вы не можете отвечать на сообщения
Вы не можете редактировать свои сообщения
Вы не можете удалять свои сообщения
Вы не можете голосовать в опросах
Вы не можете прикреплять файлы к сообщениям
Вы можете скачивать файлы