Loading...
Error

Скачать Хорошая Жена / The Good Wife (сезон 01) (Мишель Кинг, Роберт Кинг) [2010, драма, WEB-DLRip 400p] [MVO (Hallmark Russia)]+[Eng] торрент без регистрации

 
Статистика раздачи
Размер:  18,22 GB   |    Скачан:  5073 раза
Сидов:  1  [  0 KB/s  ]  
 
Автор Сообщение

МихаНЕзатор

[] 


Хорошая Жена / The Good Wife

Страна: США Телеканал: CBS
Год выпуска: 2010
Жанр: драма
Продолжительность: 00:43:00
Перевод: Профессиональный многоголосый закадровый / [Hallmark Russia]
Русские субтитры:: частичные (на непереведенные моменты)
Режиссёр: Мишель Кинг, Роберт Кинг
В ролях: Джулианна Маргулис (Алисия Флоррик), Крис Нот (Питер Флоррик), Джош Чарльз (Уилл Гарднер), Кристин Барански (Дайан Локхарт), Мэтт Зукри (Кэри Эгос), Арчи Панджаби (Калинда Шарма), Макензи Вега (Грейс Флоррик)

Описание: Обладательница Эмми Джулианна Маргулис играет Алисию Флоррик, жену и мать, на плечи которой легла забота о семье после того, как ее муж был вовлечен в публичный секс-скандал, и посажен в тюрьму за коррупцию. Пытаясь забыть о предательстве мужа Питера и о публичном унижении, которое ей пришлось из-за него пережить, Алисия начинает все сначала, возвращаясь к своей карьере адвоката. Бывший сокурсник Алисии, ее давний друг Уилл Гарднер устраивает ее младшим адвокатом в юридическую фирму. Ему любопытно, сможет ли Алисия вернуться к работе после 13-летнего перерыва. Сначала Алисия обрадовалась тому, что старший адвокат фирмы, Дайан Локхарт, предлагает ей свою помощь, но потом оказывается, что не все так просто, и что пробиваться к успеху придется только своими силами. Основной конкурент Алисии – двадцатилетний выпускник Гарварда Кэри, который готов на все ради того, чтобы получить единственное постоянное место в фирме и обойти Алисию. К счастью, Алисия находит союзницу в лице Калинды, исследователя фирмы. Становясь все уверенней с каждым днем, Алисия постепенно превращается из опозоренной жены политика в деловую женщину. Впервые за много лет Алисия отказывается от образа хорошей жены и берет судьбу в свои руки.




Качество: WEB-DLRip
Формат: AVI
Видео кодек: XviD
Аудио кодек: AC3
Видео: MPEG4, XviD, 720x400 (16/9), 23.976 fps, 2 128 Kbps (0.308 bit/pixel) (0.285 bit/pixel)
Аудио #1: [Rus] AC-3, 48.0 KHz, 2 ch, 192 Kbps, CBR
Аудио #2: [English] AC-3, 48.0 KHz, 6 ch, 384 Kbps, CBR
General
Complete name : I:\РАЗДАЧИ\Хорошая жена Сезон 1 [Hallmark Russia]\The.Good.Wife.s01e04.webdlrip.avi
Format : AVI
Format/Info : Audio Video Interleave
File size : 831 MiB
Duration : 42mn 43s
Overall bit rate : 2 719 Kbps
Writing application : VirtualDubMod 1.5.10.2 (build 2540/release)
Writing library : VirtualDubMod build 2540/release
Video
ID : 0
Format : MPEG-4 Visual
Format profile : Advanced Simple@L5
Format settings, BVOP : 1
Format settings, QPel : No
Format settings, GMC : No warppoints
Format settings, Matrix : Default (MPEG)
Codec ID : XVID
Codec ID/Hint : XviD
Duration : 42mn 43s
Bit rate : 2 128 Kbps
Width : 720 pixels
Height : 400 pixels
Display aspect ratio : 16:9
Frame rate : 23.976 fps
Color space : YUV
Chroma subsampling : 4:2:0
Bit depth : 8 bits
Scan type : Progressive
Compression mode : Lossy
Bits/(Pixel*Frame) : 0.308
Stream size : 651 MiB (78%)
Writing library : XviD 63
Audio #1
ID : 1
Format : AC-3
Format/Info : Audio Coding 3
Mode extension : CM (complete main)
Codec ID : 2000
Duration : 42mn 43s
Bit rate mode : Constant
Bit rate : 192 Kbps
Channel(s) : 2 channels
Channel positions : Front: L R
Sampling rate : 48.0 KHz
Bit depth : 16 bits
Compression mode : Lossy
Stream size : 58.7 MiB (7%)
Alignment : Split accross interleaves
Interleave, duration : 42 ms (1.00 video frame)
Interleave, preload duration : 500 ms
Audio #2
ID : 2
Format : AC-3
Format/Info : Audio Coding 3
Mode extension : CM (complete main)
Codec ID : 2000
Duration : 42mn 43s
Bit rate mode : Constant
Bit rate : 384 Kbps
Channel(s) : 6 channels
Channel positions : Front: L C R, Side: L R, LFE
Sampling rate : 48.0 KHz
Bit depth : 16 bits
Compression mode : Lossy
Stream size : 117 MiB (14%)
Alignment : Split accross interleaves
Interleave, duration : 42 ms (1.00 video frame)
Interleave, preload duration : 500 ms



Скачать Хорошая.Жена.The.Good.Wife.(сезон.01).(Мишель.Кинг.Роберт.Кинг).[2010.драма.WEB-DLRip.400p].[MVO.(Hallmark.Russia)]+[Eng].torrent без регистрации
Золото ЗОЛОТАЯ РАЗДАЧА! СКАЧАННОЕ НЕ ЗАСЧИТЫВАЕТСЯ! Золото
Дата: Зарегистрирован   [ Тип: внутренний ] Как тут cкачать?
MAGNET ссылка
MAGNET ссылка


Скачать .torrent

93 KB

Статус: проверено DHT
Скачан: торрент - 5073 раз, раздача полностью - 100 раз
Размер: 18,22 GB
Оценка:  - (Голосов: 0)
Поблагодарили: 3
Поделиться ссылкой на эту раздачу с друзьями:
В контактеFacebookОдноклассникиTwitterLivejournalМой МирLiveinternet
 

 
Показать сообщения:    


Вы не можете начинать темы
Вы не можете отвечать на сообщения
Вы не можете редактировать свои сообщения
Вы не можете удалять свои сообщения
Вы не можете голосовать в опросах
Вы не можете прикреплять файлы к сообщениям
Вы можете скачивать файлы