Loading...
Error

Скачать Хорошая Жена / The Good Wife (сезон 03) (Мишель Кинг, Роберт Кинг) [2011, драма, WEB-DLRip] [MVO (Universal Russia)]+[Eng] торрент без регистрации

 
Статистика раздачи
Размер:  8,66 GB   |    Скачан:  756 раз
Сидов:  1  [  0 KB/s  ]  
 
Автор Сообщение

МихаНЕзатор

[] 

Хорошая жена / The Good Wife

Год выпуска: 2011
Страна: США
Жанр: драма
Продолжительность: ~ 00:44:00
Перевод: Профессиональный (многоголосый закадровый) - /Universal Russia/

Субтитры: Отсутствуют
Режиссер: Мишель Кинг, Роберт Кинг
В ролях: Джулиана Маргулис (Алисия Флоррик), Крис Нот (Питер Флоррик), Джош Чарльз (Уилл Гарднер), Кристин Барански (Дайан Локхарт), Мэтт Чукри (Кэри Эгос), Арчи Панджаби (Калинда Шарма), Алан Камминг ( Илай Голд), Макензи Вега (Грейс Флоррик), Грэхэм Филлипс ( Зак Флоррик), Мэри Бет Пейл (Джеки Флоррик)
Описание: Благополучное существование Алисии Флоррик, счастливой жены и матери двух детей, было разрушено, когда её муж, чикагский прокурор Питер Флоррик, оказался в центре секс-скандала. Осуждённый за коррупцию Питер отправился в тюрьму, а на плечи Алисии легла забота о семье.
Пришлось вспомнить свои навыки адвоката. Старый друг взял Алисию к себе в фирму - младшим сотрудником, наравне с свежими выпускниками юридического колледжа, и теперь Алисия должна построить свою карьеру практически с нуля, не переставая заботиться о семье и продолжая испытывать негативные последствия скандала вокруг мужа.
В сериале смешаны семейная и юридическая драмы примерно в равных пропорциях. В каждой серии рассказывается история про дело, которое ведёт фирма "Стерн, Локхарт и Гарднер", куда Алисия устроилась на работу. И в каждой серии показывается жизнь её семьи, а заодно разворачивается сквозной детективный сюжет вокруг Питера - ведь его подставили под обвинение в коррупции не просто так.
Вновь обретённая работа, любовь к детям, сложные отношения с мужем, взаимодействие с коллегами - вот из чего состоит жизнь этой женщины, на первый взгляд беззащитной и мягкой, но в реальности очень сильной и упорной.




Качество: WEB-DLRip
Формат: AVI
Видео кодек
: XviD
Аудио кодек: MP3
Видео: MPEG4, XviD, 656x368 (16/9), 23.976 fps, 1 009 Kbps (0.174 bit/pixel)
Аудио (rus): 48.0 KHz, 2 ch, 128 Kbps
Аудио 2 (eng): 48.0 KHz, 2 ch, 128 Kbps
General
Complete name : I:\The Good Wife.s03 (universal)\The Good Wife.s03e01.WEB-DLRip.avi
Format : AVI
Format/Info : Audio Video Interleave
File size : 401 MiB
Duration : 43mn 50s
Overall bit rate : 1 278 Kbps
Writing application : VirtualDubMod 1.5.10.3 | www.virtualdub-fr.org || (build 2550/release)
Writing library : VirtualDubMod build 2550/release
Video
ID : 0
Format : MPEG-4 Visual
Format profile : Advanced Simple@L5
Format settings, BVOP : 1
Format settings, QPel : No
Format settings, GMC : No warppoints
Format settings, Matrix : Default (MPEG)
Codec ID : XVID
Codec ID/Hint : XviD
Duration : 43mn 50s
Bit rate : 1 009 Kbps
Width : 656 pixels
Height : 368 pixels
Display aspect ratio : 16:9
Frame rate : 23.976 fps
Color space : YUV
Chroma subsampling : 4:2:0
Bit depth : 8 bits
Scan type : Progressive
Compression mode : Lossy
Bits/(Pixel*Frame) : 0.174
Stream size : 316 MiB (79%)
Writing library : XviD 63
Audio #1
ID : 1
Format : MPEG Audio
Format version : Version 1
Format profile : Layer 3
Mode : Joint stereo
Mode extension : MS Stereo
Codec ID : 55
Codec ID/Hint : MP3
Duration : 43mn 50s
Bit rate mode : Constant
Bit rate : 128 Kbps
Channel(s) : 2 channels
Sampling rate : 48.0 KHz
Compression mode : Lossy
Stream size : 40.1 MiB (10%)
Alignment : Aligned on interleaves
Interleave, duration : 42 ms (1.00 video frame)
Interleave, preload duration : 504 ms
Writing library : LAME3.98r
Encoding settings : -m j -V 4 -q 2 -lowpass 17 -b 128
Audio #2
ID : 2
Format : MPEG Audio
Format version : Version 1
Format profile : Layer 3
Mode : Joint stereo
Mode extension : MS Stereo
Codec ID : 55
Codec ID/Hint : MP3
Duration : 43mn 50s
Bit rate mode : Constant
Bit rate : 128 Kbps
Channel(s) : 2 channels
Sampling rate : 48.0 KHz
Compression mode : Lossy
Stream size : 40.1 MiB (10%)
Alignment : Aligned on interleaves
Interleave, duration : 42 ms (1.00 video frame)
Interleave, preload duration : 504 ms

Раздача ведётся путём добавления новых серий; при каждом добавлении создаётся новый торрент. Чтобы начать докачку новой серии, пользователям необходимо сделать следующее:
(1) остановить скачивание,
(2) удалить старый торрент у себя из клиента (старые серии удалять не надо),
(3) скачать новый торрент и запустить его у себя в клиенте вместо старого, при этом указать клиенту путь в старую папку куда и должно происходить скачивание новых серий.
Ваш клиент при этом должен произвести хеширование (проверку) старой папки (если не производит сам - помогите ему сделать это), и будет докачивать только те серии которых у вас ещё нет. Старые серии при этом не удаляются, а продолжают раздаваться!
Eсли вы уже удалили старые серии, то предотвратить повторную закачку старых серий можно, отжав галочку в соответствующих местах при запуске нового торрента. По возможности, желательно не удалять старые серии как можно дольше чтобы релизёр не столько продолжал раздавать старые серии, а смог сконцентрироваться на новых.


Релиз:
Работа со звуком: Mazay4
Рип: Мосенька



Скачать Хорошая.Жена.The.Good.Wife.(сезон.03).(Мишель.Кинг.Роберт.Кинг).[2011.драма.WEB-DLRip].[MVO.(Universal.Russia)]+[Eng].torrent без регистрации
Золото ЗОЛОТАЯ РАЗДАЧА! СКАЧАННОЕ НЕ ЗАСЧИТЫВАЕТСЯ! Золото
Дата: Зарегистрирован   [ Тип: внутренний ] Как тут cкачать?
MAGNET ссылка
MAGNET ссылка


Скачать .torrent

24 KB

Статус: проверено DHT
Скачан: торрент - 756 раз, раздача полностью - 70 раз
Размер: 8,66 GB
Оценка:  - (Голосов: 0)
Поблагодарили: 2
Поделиться ссылкой на эту раздачу с друзьями:
В контактеFacebookОдноклассникиTwitterLivejournalМой МирLiveinternet
 

 
Показать сообщения:    


Вы не можете начинать темы
Вы не можете отвечать на сообщения
Вы не можете редактировать свои сообщения
Вы не можете удалять свои сообщения
Вы не можете голосовать в опросах
Вы не можете прикреплять файлы к сообщениям
Вы можете скачивать файлы