Loading...
Error

Скачать 1492: Завоевание рая / 1492: Conquest of Paradise (Ридли Скотт) [1992, драма, приключения, биография, история, BDRip][720p][DVO.UKR]+[MVO.RUS] торрент без регистрации

 
Статистика раздачи
Размер:  2,99 GB   |    Скачан:  145 раз
Сидов:  1  [  0 KB/s  ]  
 
Автор Сообщение

GOLDENBOY

[] 


1492: Завоювання раю / 1492: Завоевание рая / 1492: Conquest of Paradise


Год выпуска: 1992
Выпущено: США, Великобритания, Франция, Испания
Жанр: драма, приключения, биография, история
Продолжительность: 02:29:25
Перевод: Украинский Профессиональный (Закадровый двухголосый канал2+2) + Русский Профессиональный (Закадровый многоголосый RUSCICO)
Субтитры: нет

Режиссер: Ридли Скотт

В ролях: Жерар Депардье, Арманд Ассанте, Сигурни Уивер, Чеки Карио, Кевин Данн, Фрэнк Ланджелла

Описание: Фильм рассказывает об открытии Христофором Колумбом Нового Света, о влиянии этого открытия на аборигенов Америки, на Европу и на самого Колумба.





Доп. информация: 1992 - Золотой глобус - Лучший саундтрек - Вангелис

Качество: BDRip 720p
Формат: MKV
Видео кодек: AVC, x264
Аудио кодек: AC3
Видео: 1280x544, 2256 Кбит/сек, 25.000 кадр/сек
Аудио #1 UKR: AC3 2.0, 192 Кбит/сек
Аудио #2 RUS: AC3 5.1, 448 Кбит/сек


Complete name : 1492. Завоевание рая - 1492. Conquest of paradise (Жерар Депардье)_1992.Ukr.Rus..mkv
Format : Matroska
Format version : Version 2
File size : 2.99 GiB
Duration : 2h 29mn
Overall bit rate mode : Variable
Overall bit rate : 2 862 Kbps
Movie name : 1492: Conquest of paradise
Encoded date : UTC 2012-11-14 10:38:10
Writing application : mkvmerge v4.0.0 ('The Stars were mine') сборка от Jun 6 2010 16:18:42
Writing library : libebml v1.0.0 + libmatroska v1.0.0

Video
ID : 1
Format : AVC
Format/Info : Advanced Video Codec
Format profile : High@L4.1
Format settings, CABAC : Yes
Format settings, ReFrames : 3 frames
Codec ID : V_MPEG4/ISO/AVC
Duration : 2h 29mn
Bit rate mode : Variable
Bit rate : 2 256 Kbps
Maximum bit rate : 17.5 Mbps
Width : 1 280 pixels
Height : 544 pixels
Display aspect ratio : 2.35:1
Original display aspect ratio : 2.35:1
Frame rate mode : Constant
Frame rate : 25.000 fps
Color space : YUV
Chroma subsampling : 4:2:0
Bit depth : 8 bits
Scan type : Progressive
Bits/(Pixel*Frame) : 0.130
Stream size : 2.26 GiB (76%)
Title : 1492: Conquest of paradise (1992)
Writing library : x264 core 105 r1732 2b04482
Encoding settings : cabac=1 / ref=3 / deblock=1:0:0 / analyse=0x3:0x113 / me=hex / subme=7 / psy=1 / psy_rd=1.00:0.00 / mixed_ref=1 / me_range=16 / chroma_me=1 / trellis=1 / 8x8dct=1 / cqm=0 / deadzone=21,11 / fast_pskip=1 / chroma_qp_offset=-2 / threads=6 / sliced_threads=0 / slices=4 / nr=0 / decimate=1 / interlaced=0 / constrained_intra=0 / bframes=3 / b_pyramid=1 / b_adapt=1 / b_bias=0 / direct=1 / weightb=1 / open_gop=0 / weightp=0 / keyint=24 / keyint_min=1 / scenecut=40 / intra_refresh=0 / rc_lookahead=24 / rc=abr / mbtree=1 / bitrate=2256 / ratetol=1.0 / qcomp=0.60 / qpmin=0 / qpmax=51 / qpstep=4 / vbv_maxrate=17500 / vbv_bufsize=14500 / ip_ratio=1.10 / aq=1:1.00 / nal_hrd=vbr
Language : English
Default : Yes
Forced : No

Audio #1
ID : 2
Format : AC-3
Format/Info : Audio Coding 3
Mode extension : CM (complete main)
Format settings, Endianness : Big
Codec ID : A_AC3
Duration : 2h 29mn
Bit rate mode : Constant
Bit rate : 192 Kbps
Channel(s) : 2 channels
Channel positions : Front: L R
Sampling rate : 48.0 KHz
Bit depth : 16 bits
Compression mode : Lossy
Stream size : 205 MiB (7%)
Title : 1492: Завоювання раю - DVO(2+2)
Language : Ukrainian
Default : No
Forced : No

Audio #2
ID : 3
Format : AC-3
Format/Info : Audio Coding 3
Mode extension : CM (complete main)
Format settings, Endianness : Big
Codec ID : A_AC3
Duration : 2h 29mn
Bit rate mode : Constant
Bit rate : 448 Kbps
Channel(s) : 6 channels
Channel positions : Front: L C R, Side: L R, LFE
Sampling rate : 48.0 KHz
Bit depth : 16 bits
Compression mode : Lossy
Stream size : 479 MiB (16%)
Title : 1492: Завоевание рая - MVO(RUSCICO)
Language : Russian
Default : Yes
Forced : No





Скачать 1492.Завоевание.рая.1492.Conquest.of.Paradise.(Ридли.Скотт).[1992.драма.приключения.биография.история.BDRip][720p][DVO.UKR]+[MVO.RUS].torrent без регистрации
Золото ЗОЛОТАЯ РАЗДАЧА! СКАЧАННОЕ НЕ ЗАСЧИТЫВАЕТСЯ! Золото
Дата: Зарегистрирован   [ Тип: внутренний ] Как тут cкачать?
MAGNET ссылка
MAGNET ссылка


Скачать .torrent

15 KB

Статус: проверено DHT
Скачан: торрент - 145 раз, раздача полностью - 35 раз
Размер: 2,99 GB
Оценка:  5 (Голосов: 1)
Поблагодарили: 2
Поделиться ссылкой на эту раздачу с друзьями:
В контактеFacebookОдноклассникиTwitterLivejournalМой МирLiveinternet
 

 

topalov

[] 

Э..., а раздача то будет?
 
Показать сообщения:    


Вы не можете начинать темы
Вы не можете отвечать на сообщения
Вы не можете редактировать свои сообщения
Вы не можете удалять свои сообщения
Вы не можете голосовать в опросах
Вы не можете прикреплять файлы к сообщениям
Вы можете скачивать файлы