Loading...
Error

Скачать Король кикбоксеров 3: Последний нокдаун / Raw Target (Тим Спринг) [1995, боевые искусства, DVDRip] [VO]+[Оригинал] торрент без регистрации

 
Статистика раздачи
Размер:  1,45 GB   |    Скачан:  162 раза
Сидов:  1  [  0 KB/s  ]  
 
Автор Сообщение

Marsianka

[] 


Король кикбоксеров 3: Последний нокдаун / Raw Target

Год выхода: 1995
Жанр: боевые искусства
Режиссер: Тим Спринг / Tim Spring
В ролях: Дэйл Кук, Рон Холл, Николас Хилл, Роберт Маркус, Дэвид Смит, Стив Роджерс...

О фильме: Спортивная карьера чемпиона по кикбоксингу Джонни Райдера после смерти на ринге его противника по поединку закончена навсегда. Но для Джонни самое страшное событие последних недель - гибель его брата Гейба. Детектив, возглавляющий следствие по этому делу, советует Джонни не вмешиваться в ход расследования, так как основной подозреваемый в убийстве Гейба - Род Спаркс, известный наркоделец и специалист по боевым искусствам. Но Джонни решает взять правосудие в свои руки. Надеясь подобраться поближе к Роду и отомстить, Джонни принимает предложение стать его помощником. Оказавшись в самом омуте запутанных интриг, безжалостных драк и рискованных сделок с наркотиками, Джонни начинает докапываться до истины в деле об убийстве брата. Но люди Рода
раскрывают двойную игру Джонни



Выпущено: США
Продолжительность: 01:31:12
Перевод:
Профессиональный (одноголосый, закадровый)
Оригинальная (English) дорожка

Кодек: XviD - Совместимо с бытовыми DVD-плеерами
Качество: DVDRip (За исходный DVD-5 Спасибо loxaba)
Видео: 688x528 (1.30:1), 23.976 fps, XviD build 65 ~1884 kbps avg, 0.22 bit/pixel
Аудио#1:Rus: 48 kHz, AC3 Dolby Digital, 2/0 (L,R) ch, ~192 kbps
Аудио#2:Eng: 48 kHz, AC3 Dolby Digital, 2/0 (L,R) ch, ~192 kbps

Общее
Полное имя: Korol.kikbokserov.3.1995.XviD.DVDRip.VO.Eng_SergV.avi
Формат : AVI
Формат/Информация : Audio Video Interleave
Размер файла : 1,45 Гбайт
Продолжительность : 1 ч. 31 м.
Общий поток : 2283 Кбит/сек
Название фильма : Korol.kikbokserov.3.1995.XviD.DVDRip.VO.Eng_SergV
Программа кодирования : VirtualDubMod 1.5.10.3 | www.virtualdub-fr.org || (build 2550/release)
Примечание : Рип от SergV

Видео
Идентификатор : 0
Формат : MPEG-4 Visual
Профиль формата : Advanced Simple@L5
Параметр BVOP формата : 2
Параметр QPel формата : Нет
Параметр GMC формата : Без точки перехода
Параметр матрицы формата : Default (MPEG)
Идентификатор кодека : XVID
Идентификатор кодека/Подсказка : XviD
Продолжительность : 1 ч. 31 м.
Битрейт : 1885 Кбит/сек
Ширина : 688 пикселей
Высота : 528 пикселей
Соотношение сторон : 4:3
Частота кадров : 23,976 кадра/сек
Цветовое пространство : YUV
Субдискретизация насыщенности : 4:2:0
Битовая глубина : 8 бит
Тип развёртки : Прогрессивная
Метод сжатия : С потерями
Бит/(Пиксели*Кадры) : 0.216
Размер потока : 1,20 Гбайт (83%)
Библиотека кодирования : XviD 65

Аудио #1
Идентификатор : 1
Формат : AC-3
Формат/Информация : Audio Coding 3
Расширение режима : CM (complete main)
Параметр Endianness формата : Big
Идентификатор кодека : 2000
Продолжительность : 1 ч. 31 м.
Вид битрейта : Постоянный
Битрейт : 192 Кбит/сек
Каналы : 2 канала
Расположение каналов : Front: L R
Частота : 48,0 КГц
Битовая глубина : 16 бит
Метод сжатия : С потерями
Размер потока : 125 Мбайт (8%)
Выравнивание : Разделение по промежуткам
Продолжительность промежутка : 42 мс. (1,00 видеокадр)
Время предзагрузки промежутка : 500 мс.

Аудио #2
Идентификатор : 2
Формат : AC-3
Формат/Информация : Audio Coding 3
Расширение режима : CM (complete main)
Параметр Endianness формата : Big
Идентификатор кодека : 2000
Продолжительность : 1 ч. 31 м.
Вид битрейта : Постоянный
Битрейт : 192 Кбит/сек
Каналы : 2 канала
Расположение каналов : Front: L R
Частота : 48,0 КГц
Битовая глубина : 16 бит
Метод сжатия : С потерями
Размер потока : 125 Мбайт (8%)
Выравнивание : Разделение по промежуткам
Продолжительность промежутка : 42 мс. (1,00 видеокадр)
Время предзагрузки промежутка : 500 мс.
Релиз от:



Скачать Король.кикбоксеров.3.Последний.нокдаун.Raw.Target.(Тим.Спринг).[1995.боевые.искусства.DVDRip].[VO]+[Оригинал].torrent без регистрации
Золото ЗОЛОТАЯ РАЗДАЧА! СКАЧАННОЕ НЕ ЗАСЧИТЫВАЕТСЯ! Золото
Дата: Зарегистрирован   [ Тип: внутренний ] Как тут cкачать?
MAGNET ссылка
MAGNET ссылка


Скачать .torrent

15 KB

Статус: проверено DHT
Скачан: торрент - 162 раз, раздача полностью - 107 раз
Размер: 1,45 GB
Оценка:  - (Голосов: 0)
Поблагодарили: 0
Поделиться ссылкой на эту раздачу с друзьями:
В контактеFacebookОдноклассникиTwitterLivejournalМой МирLiveinternet
 

 
Показать сообщения:    


Вы не можете начинать темы
Вы не можете отвечать на сообщения
Вы не можете редактировать свои сообщения
Вы не можете удалять свои сообщения
Вы не можете голосовать в опросах
Вы не можете прикреплять файлы к сообщениям
Вы можете скачивать файлы