Loading...
Error

Скачать Вдали от безумной толпы / Far from the Madding Crowd (Джон Шлезингер) [1967, драма, мелодрама, DVDRip] [MVO]+[Sub]+[Оригинал] торрент без регистрации

 
Статистика раздачи
Размер:  2,91 GB   |    Скачан:  147 раз
Сидов:  1  [  0 KB/s  ]  
 
Автор Сообщение

Marsianka

[] 

Год выпуска: 1967
Страна: Великобритания
Студия: Metro-Goldwyn-Mayer (MGM)
Жанр: драма, мелодрама
Продолжительность: 01:48:21 + 01:33:05

Перевод: Профессиональный (многоголосый, закадровый)
Субтитры: русский, английский
Оригинальная аудиодорожка: английский

Режиссер: Джон Шлезингер / John Schlesinger

В ролях: Джули Кристи, Теренс Стэмп, Питер Финч, Алан Бейтс, Фиона Уолкер, Прунелла Рэнсом, Элисон Леггатт, Пол Доукинс, Джулиан Сомерс, Джон Бэррет...

Описание: Унаследовав от дядюшки богатую ферму, юная Батшиба Эвердин энергично берется за дело, набрав себе рабочих. Берет она и разорившегося фермера Габриэла Оука человека опытного и честного. Габриэл в свое время просил её руки, но потерпел неудачу.
Теперь ей предлагает руку и сердце сосед, зажиточный фермер Уильям Болдвуд, но своенравная Батшиба пока не соглашается стать женой, выговорив себе время на раздумья. Встреча с самовлюбленным красавцем сержантом Френком Троем становится роковой для Батшибы. Она безоглядно влюбляется, и вскоре сержант, только что бросивший свою любимую девушку Фанни Робин, становится её мужем. Через 9 месяцев рядом с домом Батшибы Трой встречает Фанни изможденную, бездомную и больную.
Он обещает позаботиться о ней и назначает ей свидание в городе на следующий день. Взяв у Батшибы деньги, он приезжает, но Фанни не приходит: она умирает во время родов, произведя на свет мертвого ребенка Френка. Френк говорит Батшибе, что любит только Фанни, даже мертвую. Он хоронит Фанни и ребенка, а сам едет к морю и исчезает. В море находят его вещи, и все решают, что он утонул.

Исходник: 2 х DVD5 R5
Тип релиза: DVDRip
Контейнер: AVI

Видео: 688x528 (4:3), 25 fps, XviD ~ 1688 kbps avg, 0.186 bit/pixel
Аудио: 48 kHz, AC3, 6 ch, 384.00 kbps

Раздача от:

Общее
Полное имя : Vdali.ot.bezumnoy.tolpy.1967.P.DVDRip_[Youtracker]_by_avprohChast1.avi
Формат : AVI
Формат/Информация : Audio Video Interleave
Размер файла : 1,46 Гбайт
Продолжительность : 1 ч. 48 м.
Общий поток : 1924 Кбит/сек
Программа кодирования : VirtualDubMod 1.5.10.3 | www.virtualdub-fr.org || (build 2550/release)
Библиотека кодирования : VirtualDubMod build 2550/release

Видео
Идентификатор : 0
Формат : MPEG-4 Visual
Профиль формата : Advanced Simple@L5
Параметр BVOP формата : 1
Параметр QPel формата : Нет
Параметр GMC формата : Без точки перехода
Параметр матрицы формата : Выборочная
Идентификатор кодека : XVID
Идентификатор кодека/Подсказка : XviD
Продолжительность : 1 ч. 48 м.
Битрейт : 1530 Кбит/сек
Ширина : 688 пикселей
Высота : 528 пикселей
Соотношение сторон : 4:3
Частота кадров : 25,000 кадров/сек
Цветовое пространство : YUV
Субдискретизация насыщенности : 4:2:0
Битовая глубина : 8 бит
Тип развёртки : Прогрессивная
Метод сжатия : С потерями
Бит/(Пиксели*Кадры) : 0.169
Размер потока : 1,16 Гбайт (80%)
Библиотека кодирования : XviD 65

Аудио
Идентификатор : 1
Формат : AC-3
Формат/Информация : Audio Coding 3
Расширение режима : CM (complete main)
Параметр Endianness формата : Big
Идентификатор кодека : 2000
Продолжительность : 1 ч. 48 м.
Вид битрейта : Постоянный
Битрейт : 384 Кбит/сек
Каналы : 6 каналов
Расположение каналов : Front: L C R, Side: L R, LFE
Частота : 48,0 КГц
Битовая глубина : 16 бит
Метод сжатия : С потерями
Размер потока : 297 Мбайт (20%)
Выравнивание : Разделение по промежуткам
Продолжительность промежутка : 40 мс. (1,00 видеокадр)
Время предзагрузки промежутка : 500 мс.

Общее
Полное имя : Vdali.ot.bezumnoy.tolpy.1967.P.DVDRip_[Youtracker]_by_avprohChast2.avi
Формат : AVI
Формат/Информация : Audio Video Interleave
Размер файла : 1,46 Гбайт
Продолжительность : 1 ч. 33 м.
Общий поток : 2239 Кбит/сек
Программа кодирования : VirtualDubMod 1.5.10.3 | www.virtualdub-fr.org || (build 2550/release)
Библиотека кодирования : VirtualDubMod build 2550/release

Видео
Идентификатор : 0
Формат : MPEG-4 Visual
Профиль формата : Advanced Simple@L5
Параметр BVOP формата : 1
Параметр QPel формата : Нет
Параметр GMC формата : Без точки перехода
Параметр матрицы формата : Выборочная
Идентификатор кодека : XVID
Идентификатор кодека/Подсказка : XviD
Продолжительность : 1 ч. 33 м.
Битрейт : 1846 Кбит/сек
Ширина : 688 пикселей
Высота : 528 пикселей
Соотношение сторон : 4:3
Частота кадров : 25,000 кадров/сек
Цветовое пространство : YUV
Субдискретизация насыщенности : 4:2:0
Битовая глубина : 8 бит
Тип развёртки : Прогрессивная
Метод сжатия : С потерями
Бит/(Пиксели*Кадры) : 0.203
Размер потока : 1,20 Гбайт (82%)
Библиотека кодирования : XviD 65

Аудио
Идентификатор : 1
Формат : AC-3
Формат/Информация : Audio Coding 3
Расширение режима : CM (complete main)
Параметр Endianness формата : Big
Идентификатор кодека : 2000
Продолжительность : 1 ч. 33 м.
Вид битрейта : Постоянный
Битрейт : 384 Кбит/сек
Каналы : 6 каналов
Расположение каналов : Front: L C R, Side: L R, LFE
Частота : 48,0 КГц
Битовая глубина : 16 бит
Метод сжатия : С потерями
Размер потока : 256 Мбайт (17%)
Выравнивание : Разделение по промежуткам
Продолжительность промежутка : 40 мс. (1,00 видеокадр)
Время предзагрузки промежутка : 500 мс.



Скачать Вдали.от.безумной.толпы.Far.from.the.Madding.Crowd.(Джон.Шлезингер).[1967.драма.мелодрама.DVDRip].[MVO]+[Sub]+[Оригинал].torrent без регистрации
Золото ЗОЛОТАЯ РАЗДАЧА! СКАЧАННОЕ НЕ ЗАСЧИТЫВАЕТСЯ! Золото
Дата: Зарегистрирован   [ Тип: внутренний ] Как тут cкачать?
MAGNET ссылка
MAGNET ссылка


Скачать .torrent

15 KB

Статус: проверено DHT
Скачан: торрент - 147 раз, раздача полностью - 9 раз
Размер: 2,91 GB
Оценка:  - (Голосов: 0)
Поблагодарили: 0
Поделиться ссылкой на эту раздачу с друзьями:
В контактеFacebookОдноклассникиTwitterLivejournalМой МирLiveinternet
 

 
Показать сообщения:    


Вы не можете начинать темы
Вы не можете отвечать на сообщения
Вы не можете редактировать свои сообщения
Вы не можете удалять свои сообщения
Вы не можете голосовать в опросах
Вы не можете прикреплять файлы к сообщениям
Вы можете скачивать файлы