Loading...
Error

Скачать Аляска, сэр! (Вячеслав Ребров) [1992, приключения, DVDRip] торрент без регистрации

 
Статистика раздачи
Размер:  1,37 GB   |    Скачан:  135 раз
Сидов:  1  [  0 KB/s  ]  
 
Автор Сообщение

МихаНЕзатор

[] 



Информация о фильме
Название: Аляска,сэр!
Год выхода: 1992
Жанр: приключения
Режиссер: Вячеслав Ребров

В ролях: Владимир Машков, Елена Романова, Алексей Жарков, Лев Любецкий, Евгений Весник, Виктор Щербаков, Григорий Маликов, Михаил Горевой, Зинаида Дехтярева, Али Ибрагимов

О фильме: Русский эмигрант, автогонщик, скрывающийся под именем Анджея Полянского, мечтает выкупить Аляску, чтобы жить на родной земле. Анджей приезжает в Польшу, где под ширмой участия в автогонках планирует осуществить очередное ограбление банка.Кто-то предупреждает полицию о готовящемся преступлении, но не так просто уберечь деньги, когда дело продумано до мелочей

Страна: Россия
Студия: Студия "Русь"
Продолжительность: 01:43:10
Язык: Русский

Файл
Кодек: XviD
Качество: DVDRip
Видео: 528x400, 1707 kbps, 25 fps
Звук: AC3, 2 ch, 192 kbps, 48.0 khz

General
Complete name : C:alyaska.ser.1992.XviD.DVDRip.avi
Format : AVI
Format/Info : Audio Video Interleave
File size : 1.37 GiB
Duration : 1h 43mn 10s
Overall bit rate : 1 906 Kbps
Writing application : VirtualDubMod 1.5.4.1 (build 2178/release)
Writing library : VirtualDubMod build 2178/release
Video #0
ID : 0
Format : MPEG-4 Visual
Format profile : Advanced Simple@L5
Format settings, BVOP : 1
Format settings, QPel : No
Format settings, GMC : No warppoints
Format settings, Matrix : Custom
Codec ID : XVID
Codec ID/Hint : XviD
Duration : 1h 43mn 10s
Bit rate : 1 707 Kbps
Width : 528 pixels
Height : 400 pixels
Display aspect ratio : 4:3
Frame rate : 25.000 fps
Color space : YUV
Chroma subsampling : 4:2:0
Bit depth : 8 bits
Scan type : Progressive
Compression mode : Lossy
Bits/(Pixel*Frame) : 0.323
Stream size : 1.23 GiB (90%)
Writing library : XviD 64
Audio #1
ID : 1
Format : AC-3
Format/Info : Audio Coding 3
Mode extension : CM (complete main)
Format settings, Endianness : Big
Codec ID : 2000
Duration : 1h 43mn 10s
Bit rate mode : Constant
Bit rate : 192 Kbps
Channel(s) : 2 channels
Channel positions : Front: L R
Sampling rate : 48.0 KHz
Bit depth : 16 bits
Compression mode : Lossy
Delay relative to video : 80ms
Stream size : 142 MiB (10%)
Alignment : Split accross interleaves
Interleave, duration : 96 ms (2.40 video frames)
Interleave, preload duration : 96 ms
, , , ,


Релиз от:



Скачать Аляска.сэр!.(Вячеслав.Ребров).[1992.приключения.DVDRip].torrent без регистрации
Золото ЗОЛОТАЯ РАЗДАЧА! СКАЧАННОЕ НЕ ЗАСЧИТЫВАЕТСЯ! Золото
Дата: Зарегистрирован   [ Тип: внутренний ] Как тут cкачать?
MAGNET ссылка
MAGNET ссылка


Скачать .torrent

14 KB

Статус: проверено DHT
Скачан: торрент - 135 раз, раздача полностью - 24 раз
Размер: 1,37 GB
Оценка:  - (Голосов: 0)
Поблагодарили: 4
Поделиться ссылкой на эту раздачу с друзьями:
В контактеFacebookОдноклассникиTwitterLivejournalМой МирLiveinternet
 

 
Показать сообщения:    


Вы не можете начинать темы
Вы не можете отвечать на сообщения
Вы не можете редактировать свои сообщения
Вы не можете удалять свои сообщения
Вы не можете голосовать в опросах
Вы не можете прикреплять файлы к сообщениям
Вы можете скачивать файлы