Loading...
Error

Скачать Прирожденные убийцы / Natural Born Killers (Оливер Стоун) [1994, боевик, триллер, драма, мелодрама, криминал, BDRip-AVC] [Режиссерская версия / Unrated Director's Cut] [MVO]+[DVO]+[AVO]+[Sub] торрент без регистрации

 
Статистика раздачи
Размер:  4,36 GB   |    Скачан:  150 раз
Сидов:  1  [  0 KB/s  ]  
 
Автор Сообщение

Marsianka

[] 

Информация о фильме
Название: Прирожденные убийцы [Режиссерская версия]
Оригинальное название: Natural Born Killers [Unrated Director's Cut]
Год выхода: 1994
Жанр: боевик, триллер, драма, мелодрама, криминал
Режиссер: Оливер Стоун
В ролях: Вуди Харрельсон (Mickey Knox), Джульетт Льюис (Mallory Knox), Том Сайзмор (Det. Jack Scagnetti), Родни Денджерфилд (Ed Wilson, Mallory's Dad), Эверетт Куинтон (Deputy Warden Wurlitzer), Джаред Харрис (London Boy), Прюитт Тэйлор Винс (Deputy Warden Kavanaugh), Эди МакКлёрг (Mallory's Mom), Рассел Минс (Old Indian), Лэнни Флаэрти (Earl), О-Лан Джонс (Mabel), Роберт Дауни мл. (Wayne Gale)

О фильме: Пара молодых влюбленных, Меллори и Микки, словно подражая легендарным Бонни и Клайду, колесит по одноэтажной Америке и убивает всех, кто попадается им на пути. Они обожают друг друга и ненавидят все остальное человечество. Их хватают и сажают в самую свирепую кутузку. Однако же череда нелепых и трагических совпадений дает парочке прирожденных убийц еще один шанс поубивать всласть. И они им не преминули попользоваться на всю катушку. Истеричное, безумное, чумовое зрелище, снятое будто в наркотической ломке, которое хочется забыть как кошмарный сон. Нам говорят, нас убеждают каждым кадром: насилие, зверство есть доминанта человеческой природы. Скандальный, супержестокий фильм, не для слабонервных.



Выпущено: США
Продолжительность: 02:02:03
Перевод: Профессиональный (многоголосный), профессиональный (двухголосый), авторский одноголосый
Субтитры: Русские, английские
Дата релиза: 16.11.2012

Файл
Кодек: Н264
Качество: BDRip (AVC) (Blu-Ray (1080p))
Видео: MPEG-4 AVC, 3000 Кбит/с, 1024х576, 23.976 кадр/с

Семпл
Аудио #1: Русский (AC3, 6 ch, 448 Кбит/с) - профессиональный (двухголосый) [Гланц и И.Королева]
Аудио #2: Русский (AC3, 2 ch, 192 Кбит/с) - профессиональный многоголосый (Неоклассика)
Аудио #3: Русский (AC3, 2 ch, 192 Кбит/с) - профессиональный многоголосый (Лазер видео)
Аудио #4: Русский (АС3, 6 ch, 448 Кбит/с) - авторский одноголосый (А.Гаврилов, поздний)
Аудио #5: Русский (AC3, 2 ch, 192 Кбит/с) - авторский одноголосый (А.Гаврилов, ранний)
Аудио #6: Русский (AC3, 2 ch, 192 Кбит/с) - авторский одноголосый (В.Горчаков)
Аудио #7: Английский (АС3, 6 ch, 448 Кбит/с) - оригинал
Общее
Уникальный идентификатор : 175692157325959076672469690343885811817 (0x842D14244B51BCDFACBA12587ABEB069)
Полное имя : G:1Prirozhdennye.ubijcy.1994.x264.BDRip.(AVC).ExKinoRay.mkv
Формат : Matroska
Версия формата : Version 2
Размер файла : 4,36 Гбайт
Продолжительность : 2 ч. 2 м.
Общий поток : 5113 Кбит/сек
Название фильма : Prirozhdennye.ubijcy.1994.x264.BDRip.(AVC).ExKinoRay
Дата кодирования : UTC 2012-11-15 18:52:17
Программа кодирования : mkvmerge v4.0.0 ('The Stars were mine') сборка от Jun 6 2010 16:18:42
Библиотека кодирования : libebml v1.0.0 + libmatroska v1.0.0

Видео
Идентификатор : 1
Формат : AVC
Формат/Информация : Advanced Video Codec
Профиль формата : High@L4.1
Параметр CABAC формата : Да
Параметр ReFrames формата : 8 кадров
Идентификатор кодека : V_MPEG4/ISO/AVC
Продолжительность : 2 ч. 2 м.
Битрейт : 3000 Кбит/сек
Ширина : 1024 пикселя
Высота : 576 пикселей
Соотношение сторон : 16:9
Частота кадров : 23,976 кадра/сек
Цветовое пространство : YUV
Субдискретизация насыщенности : 4:2:0
Битовая глубина : 8 бит
Тип развёртки : Прогрессивная
Бит/(Пиксели*Кадры) : 0.212
Размер потока : 2,47 Гбайт (57%)
Заголовок : Rip by Enigma-Vladislav71
Библиотека кодирования : x264 core 116 r2074 2641b9e
Настройки программы : cabac=1 / ref=8 / deblock=1:-2:-2 / analyse=0x3:0x133 / me=umh / subme=11 / psy=1 / psy_rd=1.00:0.00 / mixed_ref=1 / me_range=48 / chroma_me=1 / trellis=2 / 8x8dct=1 / cqm=0 / deadzone=21,11 / fast_pskip=0 / chroma_qp_offset=-2 / threads=3 / sliced_threads=0 / nr=0 / decimate=0 / interlaced=0 / bluray_compat=0 / constrained_intra=0 / bframes=8 / b_pyramid=2 / b_adapt=2 / b_bias=0 / direct=3 / weightb=1 / open_gop=0 / weightp=2 / keyint=240 / keyint_min=23 / scenecut=40 / intra_refresh=0 / rc=2pass / mbtree=0 / bitrate=3000 / ratetol=1.0 / qcomp=0.60 / qpmin=10 / qpmax=51 / qpstep=4 / cplxblur=20.0 / qblur=0.5 / ip_ratio=1.40 / pb_ratio=1.30 / aq=2:1.00
Язык : English
Default : Нет
Forced : Нет

Аудио #1
Идентификатор : 2
Формат : AC-3
Формат/Информация : Audio Coding 3
Расширение режима : CM (complete main)
Идентификатор кодека : A_AC3
Продолжительность : 2 ч. 2 м.
Вид битрейта : Постоянный
Битрейт : 448 Кбит/сек
Каналы : 6 каналов
Расположение каналов : Front: L C R, Side: L R, LFE
Частота : 48,0 КГц
Битовая глубина : 16 бит
Метод сжатия : С потерями
Размер потока : 391 Мбайт (9%)
Заголовок : профессиональный двухголосый (П.Гланц и И.Королева)
Язык : Russian
Default : Нет
Forced : Нет

Аудио #2
Идентификатор : 3
Формат : AC-3
Формат/Информация : Audio Coding 3
Расширение режима : CM (complete main)
Идентификатор кодека : A_AC3
Продолжительность : 2 ч. 2 м.
Вид битрейта : Постоянный
Битрейт : 192 Кбит/сек
Каналы : 2 канала
Расположение каналов : Front: L R
Частота : 48,0 КГц
Битовая глубина : 16 бит
Метод сжатия : С потерями
Размер потока : 168 Мбайт (4%)
Заголовок : профессиональный многоголосый (Неоклассика)
Язык : Russian
Default : Нет
Forced : Нет

Аудио #3
Идентификатор : 4
Формат : AC-3
Формат/Информация : Audio Coding 3
Расширение режима : CM (complete main)
Идентификатор кодека : A_AC3
Продолжительность : 2 ч. 2 м.
Вид битрейта : Постоянный
Битрейт : 192 Кбит/сек
Каналы : 2 канала
Расположение каналов : Front: L R
Частота : 48,0 КГц
Битовая глубина : 16 бит
Метод сжатия : С потерями
Размер потока : 168 Мбайт (4%)
Заголовок : профессиональный многоголосый (Лазер видео)
Язык : Russian
Default : Нет
Forced : Нет

Аудио #4
Идентификатор : 5
Формат : AC-3
Формат/Информация : Audio Coding 3
Расширение режима : CM (complete main)
Идентификатор кодека : A_AC3
Продолжительность : 2 ч. 2 м.
Вид битрейта : Постоянный
Битрейт : 448 Кбит/сек
Каналы : 6 каналов
Расположение каналов : Front: L C R, Side: L R, LFE
Частота : 48,0 КГц
Битовая глубина : 16 бит
Метод сжатия : С потерями
Размер потока : 391 Мбайт (9%)
Заголовок : авторский одноголосый (А.Гаврилов, поздний)
Язык : Russian
Default : Нет
Forced : Нет

Аудио #5
Идентификатор : 6
Формат : AC-3
Формат/Информация : Audio Coding 3
Расширение режима : CM (complete main)
Идентификатор кодека : A_AC3
Продолжительность : 2 ч. 2 м.
Вид битрейта : Постоянный
Битрейт : 192 Кбит/сек
Каналы : 2 канала
Расположение каналов : Front: L R
Частота : 48,0 КГц
Битовая глубина : 16 бит
Метод сжатия : С потерями
Размер потока : 168 Мбайт (4%)
Заголовок : авторский одноголосый (А.Гаврилов, ранний)
Язык : Russian
Default : Нет
Forced : Нет

Аудио #6
Идентификатор : 7
Формат : AC-3
Формат/Информация : Audio Coding 3
Расширение режима : CM (complete main)
Идентификатор кодека : A_AC3
Продолжительность : 2 ч. 2 м.
Вид битрейта : Постоянный
Битрейт : 192 Кбит/сек
Каналы : 2 канала
Расположение каналов : Front: L R
Частота : 48,0 КГц
Битовая глубина : 16 бит
Метод сжатия : С потерями
Размер потока : 168 Мбайт (4%)
Заголовок : авторский одноголосый (В.Горчаков)
Язык : Russian
Default : Нет
Forced : Нет

Аудио #7
Идентификатор : 8
Формат : AC-3
Формат/Информация : Audio Coding 3
Расширение режима : CM (complete main)
Идентификатор кодека : A_AC3
Продолжительность : 2 ч. 2 м.
Вид битрейта : Постоянный
Битрейт : 448 Кбит/сек
Каналы : 6 каналов
Расположение каналов : Front: L C R, Side: L R, LFE
Частота : 48,0 КГц
Битовая глубина : 16 бит
Метод сжатия : С потерями
Размер потока : 391 Мбайт (9%)
Заголовок : Английский
Язык : English
Default : Нет
Forced : Нет

Текст #1
Идентификатор : 9
Формат : UTF-8
Идентификатор кодека : S_TEXT/UTF8
Идентификатор кодека/Информация : UTF-8 Plain Text
Язык : Russian
Default : Да
Forced : Нет

Текст #2
Идентификатор : 10
Формат : UTF-8
Идентификатор кодека : S_TEXT/UTF8
Идентификатор кодека/Информация : UTF-8 Plain Text
Язык : English
Default : Нет
Forced : Нет

Меню
00:00:00.000 : en:Chapter 01
00:07:17.979 : en:Chapter 02
00:09:01.540 : en:Chapter 03
00:14:45.342 : en:Chapter 04
00:17:50.110 : en:Chapter 05
00:19:55.694 : en:Chapter 06
00:20:47.246 : en:Chapter 07
00:23:39.084 : en:Chapter 08
00:26:42.183 : en:Chapter 09
00:27:38.990 : en:Chapter 10
00:31:54.913 : en:Chapter 11
00:35:45.685 : en:Chapter 12
00:36:44.327 : en:Chapter 13
00:39:12.516 : en:Chapter 14
00:43:12.172 : en:Chapter 15
00:46:26.158 : en:Chapter 16
00:50:09.589 : en:Chapter 17
00:54:09.120 : en:Chapter 18
00:57:42.459 : en:Chapter 19
01:03:15.625 : en:Chapter 20
01:04:51.053 : en:Chapter 21
01:08:46.539 : en:Chapter 22
01:10:09.330 : en:Chapter 23
01:13:01.752 : en:Chapter 24
01:16:45.559 : en:Chapter 25
01:18:34.000 : en:Chapter 26
01:22:08.089 : en:Chapter 27
01:23:52.902 : en:Chapter 28
01:25:22.659 : en:Chapter 29
01:26:41.404 : en:Chapter 30
01:30:54.157 : en:Chapter 31
01:33:36.485 : en:Chapter 32
01:34:33.042 : en:Chapter 33
01:36:52.932 : en:Chapter 34
01:39:05.439 : en:Chapter 35
01:41:57.069 : en:Chapter 36
01:46:42.938 : en:Chapter 37
01:48:27.542 : en:Chapter 38
01:54:10.218 : en:Chapter 39
01:55:18.119 : en:Chapter 40
Релиз от:

Авторы релиза:



Скачать Прирожденные.убийцы.Natural.Born.Killers.(Оливер.Стоун).[1994.боевик.триллер.драма.мелодрама.криминал.BDRip-AVC].[Режиссерская.версия.Unrated.Director's.Cut].[MVO]+[DVO]+[AVO]+[Sub].torrent без регистрации
Золото ЗОЛОТАЯ РАЗДАЧА! СКАЧАННОЕ НЕ ЗАСЧИТЫВАЕТСЯ! Золото
Дата: Зарегистрирован   [ Тип: внутренний ] Как тут cкачать?
MAGNET ссылка
MAGNET ссылка


Скачать .torrent

22 KB

Статус: проверено DHT
Скачан: торрент - 150 раз, раздача полностью - 43 раз
Размер: 4,36 GB
Оценка:  5 (Голосов: 2)
Поблагодарили: 2
Поделиться ссылкой на эту раздачу с друзьями:
В контактеFacebookОдноклассникиTwitterLivejournalМой МирLiveinternet
 

 
Показать сообщения:    


Вы не можете начинать темы
Вы не можете отвечать на сообщения
Вы не можете редактировать свои сообщения
Вы не можете удалять свои сообщения
Вы не можете голосовать в опросах
Вы не можете прикреплять файлы к сообщениям
Вы можете скачивать файлы