Loading...
Error

Скачать Медовый месяц в Лас-Вегасе / Honeymoon in Vegas (Эндрю Бергман) [1992, триллер, мелодрама, комедия, BDRip-AVC] [DVO]+[AVO]+[Оригинал]+[Sub] торрент без регистрации

 
Статистика раздачи
Размер:  1,45 GB   |    Скачан:  108 раз
Сидов:  1  [  0 KB/s  ]  
 
Автор Сообщение

Marsianka

[] 

Медовый месяц в Лас-Вегасе / Honeymoon in Vegas (1992) BDRip-AVC



Информация о фильме
Название: Медовый месяц в Лас-Вегасе
Оригинальное название: Honeymoon in Vegas
Год выхода: 1992
Жанр: триллер, мелодрама, комедия
Режиссер: Эндрю Бергман

В ролях: Джеймс Каан, Николас Кейдж, Сара Джессика Паркер, Пэт Морита, Джонни Уильямс, Джон Каподиче, Роберт Костанцо, Энн Бэнкрофт, Питер Бойл, Бертон Гиллиам

О фильме: Джек и Бэтси едут в Вегас, чтобы пожениться. Там они встречают богатенького азартного игрока, который подстраивает, чтобы Джек проиграл в покер 65 тысяч долларов, взамен долга он предлагает взять на выходные «в прокат» его невесту. Что делать, приходится соглашаться. Неожиданно Джек начинает безумно ревновать. Он летит на Гавайи, преследуя их



Страна: США
Продолжительность: 01:35:46
Перевод: Двухголосый закадровый (профессиональный), Авторский, одноголосый закадровый (А. Михалёв), Оригинал (Английский)

Файл
Кодек: h.264
Качество: BDRip-AVC
Видео: 1024x554 (16:9), 23.976 fps, 1524 kbp, 0.112 bit/pixel
Аудио#1: 48 kHz, AC3 2.0, 192.00 kbps (Двухголосый R5)
Аудио#2: 48 kHz, AC3 2.0, 256.00 kbps (А. Михалёв)
Аудио#3: 48 kHz, AC3 2.0, 192.00 kbps (Английский)
Субтитры: Русские, Английские

&
Общее
Уникальный идентификатор : 207785537768697031410275509178109856552 (0x9C5209F6A82313E4B704F680EA210B28)
Полное имя : D:Honeymoon in Vegas.1992.BDRip-AVC.mkv
Формат : Matroska
Версия формата : Version 2
Размер файла : 1,45 Гбайт
Продолжительность : 1 ч. 35 м.
Общий поток : 2165 Кбит/сек
Название фильма : Медовый месяц в Лас-Вегасе / Honeymoon in Vegas (1992) BDRip-AVC rip by Rulya74
Дата кодирования : UTC 2012-11-16 17:44:49
Программа кодирования : mkvmerge v5.7.0 ('The Whirlwind') built on Jul 8 2012 20:08:51
Библиотека кодирования : libebml v1.2.3 + libmatroska v1.3.0

Видео
Идентификатор : 1
Формат : AVC
Формат/Информация : Advanced Video Codec
Профиль формата : High@L4.1
Параметр CABAC формата : Да
Параметр ReFrames формата : 10 кадров
Идентификатор кодека : V_MPEG4/ISO/AVC
Продолжительность : 1 ч. 35 м.
Битрейт : 1524 Кбит/сек
Ширина : 1024 пикселя
Высота : 554 пикселя
Соотношение сторон : 16:9
Частота кадров : 23,976 кадра/сек
Цветовое пространство : YUV
Субдискретизация насыщенности : 4:2:0
Битовая глубина : 8 бит
Тип развёртки : Прогрессивная
Бит/(Пиксели*Кадры) : 0.112
Размер потока : 1015 Мбайт (68%)
Библиотека кодирования : x264 core 129 r2230 1cffe9f
Настройки программы : cabac=1 / ref=10 / deblock=1:-3:-3 / analyse=0x3:0x133 / me=umh / subme=10 / psy=1 / psy_rd=1.08:0.01 / mixed_ref=1 / me_range=32 / chroma_me=1 / trellis=2 / 8x8dct=1 / cqm=0 / deadzone=21,11 / fast_pskip=0 / chroma_qp_offset=-3 / threads=2 / lookahead_threads=1 / sliced_threads=0 / nr=0 / decimate=1 / interlaced=0 / bluray_compat=0 / constrained_intra=0 / bframes=6 / b_pyramid=2 / b_adapt=2 / b_bias=0 / direct=3 / weightb=1 / open_gop=0 / weightp=2 / keyint=240 / keyint_min=23 / scenecut=40 / intra_refresh=0 / rc_lookahead=40 / rc=2pass / mbtree=1 / bitrate=1524 / ratetol=1.0 / qcomp=0.60 / qpmin=10 / qpmax=51 / qpstep=4 / cplxblur=20.0 / qblur=0.5 / ip_ratio=1.40 / aq=2:1.00
Default : Да
Forced : Нет

Аудио #1
Идентификатор : 2
Формат : AC-3
Формат/Информация : Audio Coding 3
Расширение режима : CM (complete main)
Идентификатор кодека : A_AC3
Продолжительность : 1 ч. 35 м.
Вид битрейта : Постоянный
Битрейт : 192 Кбит/сек
Каналы : 2 канала
Расположение каналов : Front: L R
Частота : 48,0 КГц
Битовая глубина : 16 бит
Метод сжатия : С потерями
Размер потока : 132 Мбайт (9%)
Заголовок : Двухголосый закадровый, R5
Язык : Russian
Default : Да
Forced : Нет

Аудио #2
Идентификатор : 3
Формат : AC-3
Формат/Информация : Audio Coding 3
Расширение режима : CM (complete main)
Идентификатор кодека : A_AC3
Продолжительность : 1 ч. 35 м.
Вид битрейта : Постоянный
Битрейт : 256 Кбит/сек
Каналы : 2 канала
Расположение каналов : Front: L R
Частота : 48,0 КГц
Битовая глубина : 16 бит
Метод сжатия : С потерями
Размер потока : 175 Мбайт (12%)
Заголовок : Одноголосый закадровый, А.Михалев
Язык : Russian
Default : Нет
Forced : Нет

Аудио #3
Идентификатор : 4
Формат : AC-3
Формат/Информация : Audio Coding 3
Расширение режима : CM (complete main)
Идентификатор кодека : A_AC3
Продолжительность : 1 ч. 35 м.
Вид битрейта : Постоянный
Битрейт : 192 Кбит/сек
Каналы : 2 канала
Расположение каналов : Front: L R
Частота : 48,0 КГц
Битовая глубина : 16 бит
Метод сжатия : С потерями
Размер потока : 132 Мбайт (9%)
Заголовок : Оригинал
Язык : English
Default : Нет
Forced : Нет

Текст #1
Идентификатор : 5
Формат : UTF-8
Идентификатор кодека : S_TEXT/UTF8
Идентификатор кодека/Информация : UTF-8 Plain Text
Язык : Russian
Default : Да
Forced : Нет

Текст #2
Идентификатор : 6
Формат : UTF-8
Идентификатор кодека : S_TEXT/UTF8
Идентификатор кодека/Информация : UTF-8 Plain Text
Язык : English
Default : Нет
Forced : Нет

Меню
00:00:00.000 : :Chapter 01
00:01:51.611 : :Chapter 02
00:03:56.318 : :Chapter 03
00:05:58.982 : :Chapter 04
00:09:19.182 : :Chapter 05
00:11:43.701 : :Chapter 06
00:14:15.479 : :Chapter 07
00:17:30.423 : :Chapter 08
00:19:08.814 : :Chapter 09
00:21:01.300 : :Chapter 10
00:25:23.605 : :Chapter 11
00:29:24.846 : :Chapter 12
00:32:05.882 : :Chapter 13
00:36:04.661 : :Chapter 14
00:40:51.407 : :Chapter 15
00:45:09.998 : :Chapter 16
00:47:27.344 : :Chapter 17
00:48:48.884 : :Chapter 18
00:52:22.012 : :Chapter 19
00:54:20.547 : :Chapter 20
00:56:29.385 : :Chapter 21
00:57:41.081 : :Chapter 22
01:04:30.782 : :Chapter 23
01:08:07.500 : :Chapter 24
01:11:11.057 : :Chapter 25
01:14:26.420 : :Chapter 26
01:17:19.966 : :Chapter 27
01:18:59.443 : :Chapter 28
01:21:44.733 : :Chapter 29
01:23:59.826 : :Chapter 30
01:25:12.981 : :Chapter 31
01:31:04.500 : :Chapter 32
01:35:45.573 : :Chapter 33



Скачать Медовый.месяц.в.Лас-Вегасе.Honeymoon.in.Vegas.(Эндрю.Бергман).[1992.триллер.мелодрама.комедия.BDRip-AVC].[DVO]+[AVO]+[Оригинал]+[Sub].torrent без регистрации
Золото ЗОЛОТАЯ РАЗДАЧА! СКАЧАННОЕ НЕ ЗАСЧИТЫВАЕТСЯ! Золото
Дата: Зарегистрирован   [ Тип: внутренний ] Как тут cкачать?
MAGNET ссылка
MAGNET ссылка


Скачать .torrent

15 KB

Статус: проверено DHT
Скачан: торрент - 108 раз, раздача полностью - 1 раз
Размер: 1,45 GB
Оценка:  - (Голосов: 0)
Поблагодарили: 0
Поделиться ссылкой на эту раздачу с друзьями:
В контактеFacebookОдноклассникиTwitterLivejournalМой МирLiveinternet
 

 
Показать сообщения:    


Вы не можете начинать темы
Вы не можете отвечать на сообщения
Вы не можете редактировать свои сообщения
Вы не можете удалять свои сообщения
Вы не можете голосовать в опросах
Вы не можете прикреплять файлы к сообщениям
Вы можете скачивать файлы