Loading...
Error

Скачать Американская история ужасов / American Horror Story (сезон 02) (Райан Мерфи) [2012, ужасы, драма, WEB-DL] [1080p] [DVO (Кубик в Кубе)] торрент без регистрации

 
Статистика раздачи
Размер:  23,28 GB   |    Скачан:  5476 раз
Сидов:  1  [  0 KB/s  ]  
 
Автор Сообщение

МихаНЕзатор

[] 



Американские ужасы / American horror story

Год выпуска: 2012
Страна: США
Жанр: ужасы, драма
Продолжительность: ~00:45:00
Перевод: Профессиональный двухголосый закадровый
Cубтитры: нет

Режиссёр: Райан Мерфи, Дэвид Семел

В ролях: Закари Куинто, Джозеф Файнс, Сара Полсон, Эван Питерс, Лили Рейб, Лиззи Брошерэ , Джеймс Кромуэлл, Джессика Ланг

Описание: Действие второго сезона развернется в психбольнице для душевнобольных преступников. Добро пожаловать в Брайерклифф-Мэнор, печально известная психиатрическая больница, ставшая убежищем для серийного убийцы Кровавое Лицо. Скрываясь в тени этого «святилища исцеления», выявляются страшные пороки, которые стирают границы между действительностью и безумием.

Перевод: Инга Бу
Работа со звуком: ЛП



Качество: WEB-DL 1080p
Формат: MKV
Видео кодек: H.264
Аудио кодек: AC3
Видео: AVC, 1912x1072, 23.976 fps, ~5 104 Kbps avg, 0.104 bit/pixel
Аудио Rus: AC3, 48.0 KHz, 6 ch, ~384 Kbps [Кубик в Кубе]
Аудио Eng: AC3, 48.0 KHz, 6 ch, ~384 Kbps


15.10.2013 г. торент обновлён, добавлена 13 серия!

General
Unique ID : 177913699373324777359189490975435567539 (0x85D8EE9F0592015B888C555EC3D6B1B3)
Complete name : E:videoserialsAmerican.Horror.Story.s02.1080p.WEB-DL.Rus.Eng.Kybik.v.KybeAmerican.Horror.Story.s02e01.1080p.WEB-DL.Rus.Eng.Kybik.v.Kybe.mkv
Format : Matroska
Format version : Version 2
File size : 1.93 GiB
Duration : 46mn 9s
Overall bit rate : 5 991 Kbps
Encoded date : UTC 2012-10-20 08:59:27
Writing application : mkvmerge v5.8.0 ('No Sleep / Pillow') built on Sep 2 2012 15:37:04
Writing library : libebml v1.2.3 + libmatroska v1.3.0

Video
ID : 1
Format : AVC
Format/Info : Advanced Video Codec
Format profile : High@L4.0
Format settings, CABAC : Yes
Format settings, ReFrames : 4 frames
Codec ID : V_MPEG4/ISO/AVC
Duration : 46mn 9s
Bit rate : 5 104 Kbps
Width : 1 912 pixels
Height : 1 072 pixels
Display aspect ratio : 16:9
Frame rate mode : Constant
Frame rate : 23.976 fps
Color space : YUV
Chroma subsampling : 4:2:0
Bit depth : 8 bits
Scan type : Progressive
Bits/(Pixel*Frame) : 0.104
Stream size : 1.65 GiB (85%)
Language : English
Default : Yes
Forced : No
Color primaries : BT.709
Transfer characteristics : BT.709
Matrix coefficients : BT.709

Audio #1
ID : 2
Format : AC-3
Format/Info : Audio Coding 3
Mode extension : CM (complete main)
Format settings, Endianness : Big
Codec ID : A_AC3
Duration : 46mn 9s
Bit rate mode : Constant
Bit rate : 384 Kbps
Channel(s) : 6 channels
Channel positions : Front: L C R, Side: L R, LFE
Sampling rate : 48.0 KHz
Bit depth : 16 bits
Compression mode : Lossy
Stream size : 127 MiB (6%)
Title : Кубик в Кубе
Language : Russian
Default : Yes
Forced : No

Audio #2
ID : 3
Format : AC-3
Format/Info : Audio Coding 3
Mode extension : CM (complete main)
Format settings, Endianness : Big
Codec ID : A_AC3
Duration : 46mn 9s
Bit rate mode : Constant
Bit rate : 384 Kbps
Channel(s) : 6 channels
Channel positions : Front: L C R, Side: L R, LFE
Sampling rate : 48.0 KHz
Bit depth : 16 bits
Compression mode : Lossy
Stream size : 127 MiB (6%)
Language : English
Default : No
Forced : No

S2, Ep1 Welcome to Briarcliff
S2, Ep2 Tricks and Treats
S2, Ep3 Nor'easter
S2, Ep4 I Am Anne Frank: Part 1
S2, Ep5 I Am Anne Frank: Part 2

Внимание! Раздача ведётся путём добавления новых серий; при каждом добавлении создётся новый торрент. Чтобы начать докачку новой серии, пользователям необходимо сделать следующее:
(1) остановить скачивание,
(2) удалить старый торрент у себя из клиента (старые серии удалять не надо),
(3) скачать новый торрент и запустить его у себя в клиенте вместо старого, при этом указать клиенту путь в старую папку куда и должно происходить скачивание новых серий.
Ваш клиент при этом должен произвести хеширование (проверку) старой папки (если не производит сам - помогите ему сделать это), и будет докачивать только те серии которых у вас ещё нет. Старые серии при этом не удаляются, а продолжают раздаваться!
Eсли вы уже удалили старые серии, то предотвратить повторную закачку старых серий можно, отжав галочку в соответсвующих местах при запуске нового торрента. По возможности, желательно не удалять старые серии как можно дольше чтобы релизёр не столько продолжал раздавать старые серии, а смог сконцентрироваться на новых.



Скачать Американская.история.ужасов.American.Horror.Story.(сезон.02).(Райан.Мерфи).[2012.ужасы.драма.WEB-DL].[1080p].[DVO.(Кубик.в.Кубе)].torrent без регистрации
Золото ЗОЛОТАЯ РАЗДАЧА! СКАЧАННОЕ НЕ ЗАСЧИТЫВАЕТСЯ! Золото
Дата: Зарегистрирован   [ Тип: внутренний ] Как тут cкачать?
MAGNET ссылка
MAGNET ссылка


Скачать .torrent

118 KB

Статус: проверено DHT
Скачан: торрент - 5476 раз, раздача полностью - 67 раз
Размер: 23,28 GB
Оценка:  - (Голосов: 0)
Поблагодарили: 3
Поделиться ссылкой на эту раздачу с друзьями:
В контактеFacebookОдноклассникиTwitterLivejournalМой МирLiveinternet
 

 
Показать сообщения:    


Вы не можете начинать темы
Вы не можете отвечать на сообщения
Вы не можете редактировать свои сообщения
Вы не можете удалять свои сообщения
Вы не можете голосовать в опросах
Вы не можете прикреплять файлы к сообщениям
Вы можете скачивать файлы