Loading...
Error

Скачать Никита / Nikita (сезон 03) (Дэнни Кэннон) [2012, боевик, триллер, драма, WEB-DLRip] [DVO (NewStudio)] торрент без регистрации

 
Статистика раздачи
Размер:  11,82 GB   |    Скачан:  185 раз
Сидов:  1  [  0 KB/s  ]  
 
Автор Сообщение

МихаНЕзатор

[] 

Название: Никита
Оригинальное название: Nikita
Год выпуска: 2012-2013
Жанр: Боевик, триллер, драма
Режиссер: Дэвид Соломон, Дэнни Кэннон, Ник Копус

В ролях: Мэгги Кью, Шэйн Уэст, Линдси Фонсека, Аарон Стэнфорд, Мелинда Кларк, Ксандер Беркли, Тиффани Хайнс, Эштон Холмс, Роб Стюарт, Тэд Лакинбилл, Элиана Джонс, Ной Бин, Вьеслав Кристиан, Девон Сава, Кассандра Сантос, Питер Аутербридж, Рич Соммер, Хааз Слейман, Хамиш МакЭван, Себастьен Робертс, Патрик Гэрроу, Дэвид Ферри, Ротафорд Грэй, Мэнюель Уррего, Крис Джиллетт, Дэвид Кэрти, Эммануель Кабонго, Джаррод Маклин, Уинстон Маршалл

Описание: Когда Никита была крайне проблемным тинейджером, от смерти её спасло секретное агентство США, известное как Подразделение, которое подстроило её казнь и убедило, что ей дали второй шанс начать новую жизнь и возможность послужить своей стране. Однако ей не сказали, что её тренировали как шпионку и убийцу. В конце концов Никиту предали и все её мечты были разрушены людьми, которым, как она думала, можно было доверять. После трех лет в бегах Никита ищет возмездия, ясно дав понять своим бывшим боссам, что она ни перед чем не остановится, чтобы разоблачить и уничтожить их секретное управление. Однако на данный момент Подразделение продолжает набирать рекрутов и обучать молодых людей, стирая любую информацию об их прежней жизни и делая из них хладнокровных и квалифицированных убийц. Одна из новых рекрутов, Алекс, только начинает понимать, что ждет ее в будущем и почему легендарная Никита приняла отчаянную попытку бежать.

Страна:
Продолжительность: 10 x ~ 00:45:00
Перевод: Профессиональный (двухголосый, закадровый) - Gutta, Caps
Субтитры: Нет

Озвучка: Gutta, Caps
Перевод: teatralka
Подготовка видео: Koss
Работа со звуком: Baggio
Постер: Vortex

Качество: WEB-DLRip
Формат: AVI
Видео: XviD, ~ 1541 Кбит/с, 720x400
Аудио rus: MP3, 2 ch, 128 Кбит/с
Аудио eng: MP3, 2 ch, 128 Кбит/с

Релиз от:

25.05.2013 г. торент обновлён, добавлена 22 серия, сезон полностью!

01. 3.0 / 3.0
02. Невинность / Innocence
03. Истинноверующий / True Believer
04. Последствия / Consequences
05. Лезвие меча / The Sword's Edge
06. Удар под дых / Sideswipe
07. Точка пересечения / Intersection
08. Последствия / Aftermath
09. Инстинкт выживания / Survival Instincts
10. Новый мир / Brave New World
11. Черный значок / Black Badge
12. С огнем / With Fire
13. Воссоединение / Reunion
14. The Life We've Chosen
15. Inevitability
16. Tipping Point

17. Маски / Masks
18. Распавшаяся семья / Broken Home
19. Саморазрушение / Self-Destruct
20. Особо важная цель / High-Value Target
21. Невидимая рука / Invisible Hand
22. / Til Death Do Us Part
General
Complete name : D:Все с инетаNikita.s03e01.WEB-DL.NewStudio.TV.avi
Format : AVI
Format/Info : Audio Video Interleave
File size : 550 MiB
Duration : 42mn 25s
Overall bit rate : 1 813 Kbps
Writing application : VirtualDubMod 1.5.10.2 (build 2540/release)
Writing library : VirtualDubMod build 2540/release

Video
ID : 0
Format : MPEG-4 Visual
Format profile : Advanced Simple@L5
Format settings, BVOP : 2
Format settings, QPel : No
Format settings, GMC : No warppoints
Format settings, Matrix : Default (MPEG)
Codec ID : XVID
Codec ID/Hint : XviD
Duration : 42mn 25s
Bit rate : 1 541 Kbps
Width : 720 pixels
Height : 400 pixels
Display aspect ratio : 16:9
Frame rate : 23.976 fps
Color space : YUV
Chroma subsampling : 4:2:0
Bit depth : 8 bits
Scan type : Progressive
Compression mode : Lossy
Bits/(Pixel*Frame) : 0.223
Stream size : 468 MiB (85%)
Writing library : XviD 65

Audio #1
ID : 1
Format : MPEG Audio
Format version : Version 1
Format profile : Layer 3
Mode : Joint stereo
Mode extension : MS Stereo
Codec ID : 55
Codec ID/Hint : MP3
Duration : 42mn 25s
Bit rate mode : Constant
Bit rate : 128 Kbps
Channel(s) : 2 channels
Sampling rate : 48.0 KHz
Compression mode : Lossy
Stream size : 38.8 MiB (7%)
Alignment : Aligned on interleaves
Interleave, duration : 42 ms (1.00 video frame)
Interleave, preload duration : 504 ms

Audio #2
ID : 2
Format : MPEG Audio
Format version : Version 1
Format profile : Layer 3
Mode : Joint stereo
Mode extension : MS Stereo
Codec ID : 55
Codec ID/Hint : MP3
Duration : 42mn 25s
Bit rate mode : Variable
Bit rate : 128 Kbps
Channel(s) : 2 channels
Sampling rate : 48.0 KHz
Compression mode : Lossy
Stream size : 38.5 MiB (7%)
Alignment : Aligned on interleaves
Interleave, duration : 24 ms (0.58 video frame)
Interleave, preload duration : 511 ms
Writing library : LAME3.90.
Encoding settings : -m j -V 4 -q 2 -lowpass 17.6 --abr 128



Скачать Никита.Nikita.(сезон.03).(Дэнни.Кэннон).[2012.боевик.триллер.драма.WEB-DLRip].[DVO.(NewStudio)].torrent без регистрации
Золото ЗОЛОТАЯ РАЗДАЧА! СКАЧАННОЕ НЕ ЗАСЧИТЫВАЕТСЯ! Золото
Дата: Зарегистрирован   [ Тип: внутренний ] Как тут cкачать?
MAGNET ссылка
MAGNET ссылка


Скачать .torrent

31 KB

Статус: проверено DHT
Скачан: торрент - 185 раз, раздача полностью - 36 раз
Размер: 11,82 GB
Оценка:  5 (Голосов: 1)
Поблагодарили: 3
Поделиться ссылкой на эту раздачу с друзьями:
В контактеFacebookОдноклассникиTwitterLivejournalМой МирLiveinternet
 

 

МихаНЕзатор

[] 

Раздача обновлена.
 
Показать сообщения:    


Вы не можете начинать темы
Вы не можете отвечать на сообщения
Вы не можете редактировать свои сообщения
Вы не можете удалять свои сообщения
Вы не можете голосовать в опросах
Вы не можете прикреплять файлы к сообщениям
Вы можете скачивать файлы