Loading...
Error

Скачать Переполох / Ruckus (Макс Кливен) [1981, триллер, DVDRip] [AVO] торрент без регистрации

 
Статистика раздачи
Размер:  1,37 GB   |    Скачан:  107 раз
Сидов:  1  [  0 KB/s  ]  
 
Автор Сообщение

Marsianka

[] 



Информация о фильме
Название: Переполох
Оригинальное название: Ruckus
Год выхода: 1981
Жанр: триллер
Режиссер: Макс Кливен
В ролях: Дерк Бенедикт, Бен Джонсон, Линда Блэр, Мэтт Кларк, Ричард Фарнсуорт

О фильме:
Кайл Хэнсон вьетнамский ветеран, оказавшийся волей случая в Алабаме. Когда Кайл останавливается в своём потёртом френче в небольшом городке, чтобы перекусить, к нему начинают докапываться местные хулиганы. Кайл, используя свой боевой опыт, даёт отпор местным парням. С этого времени Кайл становится врагом, для тех кого он невольно обидел. Местные парни объявляют его в негласный розыск, они хотят найти его, чтобы ему отомстить. Приют Кайлу предоставляет одна женщина Дженни Белоус, муж которой пропал безвести во Вьетнаме.



Страна: США
Студия: International vision.INC
Продолжительность: 01:31:57
Перевод: Авторский, одноголосый закадровый(А.Михалев)

Файл
Кодек: XviD
Качество: DVDRip
Видео: 656x368, 1812 kbps, 23.976 fps
Звук: AC3, 2 ch, 320 kbps,48.0 khz
General
Complete name : C:Perepoloch.1981.XviD.DVDRip.avi
Format : AVI
Format/Info : Audio Video Interleave
File size : 1.37 GiB
Duration : 1h 31mn 57s
Overall bit rate : 2 139 Kbps
Writing application : VirtualDubMod 1.5.4.1 (build 2178/release)
Writing library : VirtualDubMod build 2178/release
Video #0
ID : 0
Format : MPEG-4 Visual
Format profile : Advanced Simple@L5
Format settings, BVOP : 1
Format settings, QPel : No
Format settings, GMC : No warppoints
Format settings, Matrix : Custom
Codec ID : XVID
Codec ID/Hint : XviD
Duration : 1h 31mn 57s
Bit rate : 1 812 Kbps
Width : 656 pixels
Height : 368 pixels
Display aspect ratio : 16:9
Frame rate : 23.976 fps
Color space : YUV
Chroma subsampling : 4:2:0
Bit depth : 8 bits
Scan type : Progressive
Compression mode : Lossy
Bits/(Pixel*Frame) : 0.313
Stream size : 1.16 GiB (85%)
Writing library : XviD 64
Audio #1
ID : 1
Format : AC-3
Format/Info : Audio Coding 3
Mode extension : CM (complete main)
Format settings, Endianness : Big
Codec ID : 2000
Duration : 1h 31mn 57s
Bit rate mode : Constant
Bit rate : 320 Kbps
Channel(s) : 2 channels
Channel positions : Front: L R
Sampling rate : 48.0 KHz
Bit depth : 16 bits
Compression mode : Lossy
Stream size : 210 MiB (15%)
Alignment : Split accross interleaves
Interleave, duration : 96 ms (2.30 video frames)
Interleave, preload duration : 96 ms
, , , ,
Релиз от:



Скачать Переполох.Ruckus.(Макс.Кливен).[1981.триллер.DVDRip].[AVO].torrent без регистрации
Золото ЗОЛОТАЯ РАЗДАЧА! СКАЧАННОЕ НЕ ЗАСЧИТЫВАЕТСЯ! Золото
Дата: Зарегистрирован   [ Тип: внутренний ] Как тут cкачать?
MAGNET ссылка
MAGNET ссылка


Скачать .torrent

14 KB

Статус: проверено DHT
Скачан: торрент - 107 раз, раздача полностью - 3 раз
Размер: 1,37 GB
Оценка:  - (Голосов: 0)
Поблагодарили: 1
Поделиться ссылкой на эту раздачу с друзьями:
В контактеFacebookОдноклассникиTwitterLivejournalМой МирLiveinternet
 

 
Показать сообщения:    


Вы не можете начинать темы
Вы не можете отвечать на сообщения
Вы не можете редактировать свои сообщения
Вы не можете удалять свои сообщения
Вы не можете голосовать в опросах
Вы не можете прикреплять файлы к сообщениям
Вы можете скачивать файлы