Loading...
Error

Скачать Разорванный занавес / Torn Curtain (Альфред Хичкок) [1966, триллер, детектив, BDRip-AVC] [MVO] торрент без регистрации

 
Статистика раздачи
Размер:  3,08 GB   |    Скачан:  125 раз
Сидов:  1  [  0 KB/s  ]  
 
Автор Сообщение

Marsianka

[] 

Информация о фильме
Название: Разорванный занавес
Оригинальное название: Torn Curtain
Год выхода: 1966
Жанр: триллер, детектив
Режиссер: Альфред Хичкок
В ролях: Пол Ньюман, Джули Эндрюс, Лиля Кедрова, Хансйерг Фельми, Тамара Туманова, Вольфганг Килинг, Людвиг Донат, Гюнтер Штрак, Гизела Фишер, Морт Миллз, Кэролин Конвелл, Артур Гулд-Портер, Глория Горвин, Роберт Бун, Питер Борн, Линда Кэрол, Рико Каттани, Андреа Дарви, Морис Донер, Хорст Эберсберг, Бен Фроммер, Саша Харден, Джо Харрис, Миша Хауссерманн, Альфред Хичкок, Эрик Холланд, Нэнси Килгас, Питер Лорр мл., Ян Мальмше, Хедли Маттингли, Норберт Мизел, Дэвид Опатошу, Герд Рейн, Джин Рот, Норберт Шиллер, Лайл Судроу, Вильгельм фон Хомбург

О фильме:
Майкл Армстронг, известный в США физик-ядерщик, вместе со своей невестой Сарой отправляется в Восточную Германию. В разгар холодной войны подобное путешествие для человека его профессии, по меньшей мере, настораживает, и невеста с ужасом догадывается, что ее будущий супруг захотел стать перебежчиком.



Страна: США, Universal Pictures
Продолжительность: 02:07:43
Перевод: Профессиональный многоголосый
Дата релиза: 19.11.2012

Файл
Кодек: H.264
Качество: BDRip (AVC) (Blu-Ray (1080p))
Видео: MPEG-4 AVC, 3000 Кбит/с, 1024x556, 23.976 кадр/с
Звук: Русский, английский (AC3, 2 ch, 224 Кбит/с)
Общее
Уникальный идентификатор : 207718955630585605086312126901775986556 (0x9C453735ECC6FA50A0C6507D65EB6F7C)
Полное имя : G:2Razorvannyj.zanaves.1966.x264.BDRip.(AVC).ExKinoRay.mkv
Формат : Matroska
Версия формата : Version 2
Размер файла : 3,08 Гбайт
Продолжительность : 2 ч. 7 м.
Общий поток : 3450 Кбит/сек
Название фильма : Razorvannyj.zanaves.1966.x264.BDRip.(AVC).ExKinoRay
Дата кодирования : UTC 2012-11-19 19:39:53
Программа кодирования : mkvmerge v4.0.0 ('The Stars were mine') сборка от Jun 6 2010 16:18:42
Библиотека кодирования : libebml v1.0.0 + libmatroska v1.0.0

Видео
Идентификатор : 1
Формат : AVC
Формат/Информация : Advanced Video Codec
Профиль формата : High@L4.1
Параметр CABAC формата : Да
Параметр ReFrames формата : 8 кадров
Идентификатор кодека : V_MPEG4/ISO/AVC
Продолжительность : 2 ч. 7 м.
Битрейт : 3000 Кбит/сек
Ширина : 1024 пикселя
Высота : 556 пикселей
Соотношение сторон : 16:9
Частота кадров : 23,976 кадра/сек
Цветовое пространство : YUV
Субдискретизация насыщенности : 4:2:0
Битовая глубина : 8 бит
Тип развёртки : Прогрессивная
Бит/(Пиксели*Кадры) : 0.220
Размер потока : 2,62 Гбайт (85%)
Заголовок : Rip by Enigma-Vladislav71
Библиотека кодирования : x264 core 116 r2074 2641b9e
Настройки программы : cabac=1 / ref=8 / deblock=1:-2:-2 / analyse=0x3:0x133 / me=umh / subme=11 / psy=1 / psy_rd=1.00:0.00 / mixed_ref=1 / me_range=48 / chroma_me=1 / trellis=2 / 8x8dct=1 / cqm=0 / deadzone=21,11 / fast_pskip=0 / chroma_qp_offset=-2 / threads=3 / sliced_threads=0 / nr=0 / decimate=0 / interlaced=0 / bluray_compat=0 / constrained_intra=0 / bframes=8 / b_pyramid=2 / b_adapt=2 / b_bias=0 / direct=3 / weightb=1 / open_gop=0 / weightp=2 / keyint=240 / keyint_min=23 / scenecut=40 / intra_refresh=0 / rc=2pass / mbtree=0 / bitrate=3000 / ratetol=1.0 / qcomp=0.60 / qpmin=10 / qpmax=51 / qpstep=4 / cplxblur=20.0 / qblur=0.5 / ip_ratio=1.40 / pb_ratio=1.30 / aq=2:1.00
Язык : English
Default : Нет
Forced : Нет

Аудио #1
Идентификатор : 2
Формат : AC-3
Формат/Информация : Audio Coding 3
Расширение режима : CM (complete main)
Идентификатор кодека : A_AC3
Продолжительность : 2 ч. 7 м.
Вид битрейта : Постоянный
Битрейт : 224 Кбит/сек
Каналы : 2 канала
Расположение каналов : Front: L R
Частота : 48,0 КГц
Битовая глубина : 16 бит
Метод сжатия : С потерями
Размер потока : 205 Мбайт (6%)
Язык : Russian
Default : Да
Forced : Нет

Аудио #2
Идентификатор : 3
Формат : AC-3
Формат/Информация : Audio Coding 3
Расширение режима : CM (complete main)
Идентификатор кодека : A_AC3
Продолжительность : 2 ч. 7 м.
Вид битрейта : Постоянный
Битрейт : 224 Кбит/сек
Каналы : 2 канала
Расположение каналов : Front: L R
Частота : 48,0 КГц
Битовая глубина : 16 бит
Метод сжатия : С потерями
Размер потока : 205 Мбайт (6%)
Язык : English
Default : Нет
Forced : Нет

Меню
00:00:00.000 : en:Chapter 01
00:05:33.541 : en:Chapter 02
00:11:24.809 : en:Chapter 03
00:15:35.809 : en:Chapter 04
00:20:57.631 : en:Chapter 05
00:36:59.634 : en:Chapter 06
00:40:49.822 : en:Chapter 07
00:44:43.347 : en:Chapter 08
00:55:10.515 : en:Chapter 09
00:59:01.871 : en:Chapter 10
01:03:11.496 : en:Chapter 11
01:10:26.013 : en:Chapter 12
01:20:42.712 : en:Chapter 13
01:29:50.093 : en:Chapter 14
01:42:14.336 : en:Chapter 15
01:55:26.461 : en:Chapter 16
02:02:48.319 : en:Chapter 17
02:07:19.840 : en:Chapter 18
Семпл Релиз от:

Авторы релиза:



Скачать Разорванный.занавес.Torn.Curtain.(Альфред.Хичкок).[1966.триллер.детектив.BDRip-AVC].[MVO].torrent без регистрации
Золото ЗОЛОТАЯ РАЗДАЧА! СКАЧАННОЕ НЕ ЗАСЧИТЫВАЕТСЯ! Золото
Дата: Зарегистрирован   [ Тип: внутренний ] Как тут cкачать?
MAGNET ссылка
MAGNET ссылка


Скачать .torrent

16 KB

Статус: проверено DHT
Скачан: торрент - 125 раз, раздача полностью - 15 раз
Размер: 3,08 GB
Оценка:  - (Голосов: 0)
Поблагодарили: 0
Поделиться ссылкой на эту раздачу с друзьями:
В контактеFacebookОдноклассникиTwitterLivejournalМой МирLiveinternet
 

 
Показать сообщения:    


Вы не можете начинать темы
Вы не можете отвечать на сообщения
Вы не можете редактировать свои сообщения
Вы не можете удалять свои сообщения
Вы не можете голосовать в опросах
Вы не можете прикреплять файлы к сообщениям
Вы можете скачивать файлы