Loading...
Error

Скачать Доктор мафии / The Mob Doctor (1х1-10,12-13 из 13) (Майкл Диннер) [2012 г., драма, WEB-DLRip] [MVO (SET Россия)] торрент без регистрации

 
Статистика раздачи
Размер:  5,28 GB   |    Скачан:  146 раз

Полного источника не было: 26 минут

 
Автор Сообщение

МихаНЕзатор

[] 



Доктор мафии / The Mob Doctor


Год выпуска: 2012
Страна: США | FOX
Жанр: драма
Продолжительность: ~ 00:44:00
Перевод: Профессиональный (многоголосый, закадровый) - (SET Россия)
Субтитры: Нет
Режиссёр: Майкл Диннер
В ролях: Джордана Спиро, Желько Иванек, Роберта Чунг, Сэмюэл Медоуз, Адам Харингтон, Стив Микула и другие...
Описание: Для большинства врачей клятва Гиппократа священна. Но для одного доктора из Чикаго, которая оказалась в долгу у мафии, спасение жизней не на первом месте. The Mob Doctor — динамичная медицинская драма про талантливую молодую женщину, которая работает кардиохирургом днем, а ночью становится доктором для мафии, отрабатывая свои долги. Доктор Грейс Девлин — ведущий ординатор в медицинском центре Рузвельта в Чикаго. Умная, уверенная в себе, она один из самых многообещающих молодых хирургов страны. Но семейные узы крепко связивают ее с мафиозным миром чикагского Саутсайда. Чтобы выплатить игорный долг брата, она заключает сделку с дьяволом и соглашается работать на мафию.

Звук предоставил: Саша Эндик
Работа со звуком: Саша Эндик
Рип: Мосенька
Качество: WEB-DLRip
Формат: AVI
Видео кодек: XviD
Аудио кодек: MP3
Видео: 656x368 (16:9), 23.976 fps, 1 166 Kbps (0.201 bit/pixel)
Аудио Rus: 48.0 KHz, 2 ch, 128 Kbps, CBR|SET Россия|
Аудио Eng: 48.0 KHz, 2 ch, 128 Kbps, CBR |Original|
General
Complete name : I:\Доктор мафии Сезон 1 (SET Россия)\The.Mob.Doctor.s01e01.avi
Format : AVI
Format/Info : Audio Video Interleave
File size : 451 MiB
Duration : 43mn 55s
Overall bit rate : 1 435 Kbps
Writing application : VirtualDubMod 1.5.10.3 | www.virtualdub-fr.org || (build 2550/release)
Writing library : VirtualDubMod build 2550/release
Video
ID : 0
Format : MPEG-4 Visual
Format profile : Advanced Simple@L5
Format settings, BVOP : 1
Format settings, QPel : No
Format settings, GMC : No warppoints
Format settings, Matrix : Custom
Codec ID : XVID
Codec ID/Hint : XviD
Duration : 43mn 55s
Bit rate : 1 166 Kbps
Width : 656 pixels
Height : 368 pixels
Display aspect ratio : 16:9
Frame rate : 23.976 fps
Color space : YUV
Chroma subsampling : 4:2:0
Bit depth : 8 bits
Scan type : Progressive
Compression mode : Lossy
Bits/(Pixel*Frame) : 0.201
Stream size : 366 MiB (81%)
Writing library : XviD 63
Audio #1
ID : 1
Format : MPEG Audio
Format version : Version 1
Format profile : Layer 3
Codec ID : 55
Codec ID/Hint : MP3
Duration : 43mn 55s
Bit rate mode : Constant
Bit rate : 128 Kbps
Channel(s) : 2 channels
Sampling rate : 48.0 KHz
Compression mode : Lossy
Stream size : 40.2 MiB (9%)
Alignment : Aligned on interleaves
Interleave, duration : 42 ms (1.00 video frame)
Interleave, preload duration : 504 ms
Writing library : LAME3.99r
Encoding settings : -m s -V 4 -q 2 -lowpass 17 -b 128
Audio #2
ID : 2
Format : MPEG Audio
Format version : Version 1
Format profile : Layer 3
Mode : Joint stereo
Mode extension : MS Stereo
Codec ID : 55
Codec ID/Hint : MP3
Duration : 43mn 55s
Bit rate mode : Constant
Bit rate : 128 Kbps
Channel(s) : 2 channels
Sampling rate : 48.0 KHz
Compression mode : Lossy
Stream size : 40.2 MiB (9%)
Alignment : Aligned on interleaves
Interleave, duration : 42 ms (1.00 video frame)
Interleave, preload duration : 504 ms
Внимание! Раздача ведётся путём добавления новых серий; при каждом добавлении создётся новый торрент. Чтобы начать докачку новой серии, пользователям необходимо сделать следующее:Остановить скачивание.
Удалить старый торрент у себя из клиента (старые серии удалять не надо).
Скачать новый торрент и запустить его у себя в клиенте вместо старого, при этом указать клиенту путь в старую папку куда и должно происходить скачивание новых серий.Ваш клиент при этом должен произвести хеширование (проверку) старой папки (если не производит сам - помогите ему сделать это), и будет докачивать только те серии которых у вас ещё нет. Старые серии при этом не удаляются, а продолжают раздаваться!
Eсли вы уже удалили старые серии, то предотвратить повторную закачку старых серий можно, отжав галочку в соответсвующих местах при запуске нового торрента. По возможности, желательно не удалять старые серии как можно дольше чтобы релизёр не столько продолжал раздавать старые серии, а смог сконцентрироваться на новых.
[align=center]



Скачать Доктор.мафии.The.Mob.Doctor.(1х1-10.12-13.из.13).(Майкл.Диннер).[2012.г.драма.WEB-DLRip].[MVO.(SET.Россия)].torrent без регистрации
Золото ЗОЛОТАЯ РАЗДАЧА! СКАЧАННОЕ НЕ ЗАСЧИТЫВАЕТСЯ! Золото
Дата: Зарегистрирован   [ Тип: внутренний ] Как тут cкачать?
MAGNET ссылка
MAGNET ссылка


Скачать .torrent

15 KB

Статус: проверено DHT
Скачан: торрент - 146 раз, раздача полностью - 2 раз
Размер: 5,28 GB
Оценка:  5 (Голосов: 1)
Поблагодарили: 2
Поделиться ссылкой на эту раздачу с друзьями:
В контактеFacebookОдноклассникиTwitterLivejournalМой МирLiveinternet
 

 

МихаНЕзатор

[] 

Раздача обновлена
 
Показать сообщения:    


Вы не можете начинать темы
Вы не можете отвечать на сообщения
Вы не можете редактировать свои сообщения
Вы не можете удалять свои сообщения
Вы не можете голосовать в опросах
Вы не можете прикреплять файлы к сообщениям
Вы можете скачивать файлы