Loading...
Error

Скачать Сверхъестественное / Supernatural (сезон 08) (Роберт Сингер) [2012, мистика, ужасы, триллер, драма, HDTVRip] [720p] [MVO (NovaFilm)] торрент без регистрации

 
Статистика раздачи
Размер:  32,75 GB   |    Скачан:  486 раз
Сидов:  1  [  0 KB/s  ]  
 
Автор Сообщение

МихаНЕзатор

[] 

Название: Сверхъестественное
Оригинальное название: Supernatural
Год выпуска: 2012-2013
Жанр: Ужасы, триллер, мистика
Режиссер: Джереми Карвер
В ролях: Джаред Падалеки, Дженсен Эклс, Джим Бивер, Миша Коллинз, Митч Пелеги, Марк Шеппард, Марк Пеллегрино и др

Описание: Сериал рассказывает о приключениях братьев Сэма и Дина Винчестеров, которые путешествуют по Соединённым Штатам на чёрном автомобиле Chevrolet Impala 1967 года, расследуют паранормальные явления, многие из которых основаны на американских городских легендах и фольклоре, и сражаются с порождениями зла, такими как демоны и призраки. Как братья Винчестеры в очередной раз собираются спасти планету от бессмертных тварей, увидите в 8 сезоне сериала "Сверхъестественное".

Страна: США
Продолжительность: 22 x ~ 00:45:00
Перевод: Профессиональный (многоголосый, закадровый) - NovaFilm
Субтитры: Русские

Качество: WEB-DL 720p
Формат: MKV
Видео: MPEG-4 AVC, ~ 4000 Кбит/с, 1280x720
Аудио rus: АС3, 6 ch, 384 Кбит/с
Аудио eng: АС3, 6 ch, 384 Кбит/с

Релиз от:

24.05.2013 г. торент обновлён, добавлена 23-я серия, сезон полностью!

01. Есть разговор о Кевине / We Need to Talk About Kevin
02. Вам слово, мамочка! / What's Up, Tiger Mommy?
03. Сердечные муки / Heartache
04. Укушенный / Bitten
05. Брат по крови / Blood Brother
06. Утоли мои печали / Southern Comfort
07. Кусочек Кевина / A Little Slice of Kevin
08. Отважный охотник / Hunteri Heroici
09. Гражданин Клык / Citizen Fang
10. На перепутье / Torn and Frayed
11. Ролевая игра и настоящая девчонка / LARP and the Real Girl
12. Время летит / As Time Goes By
13. Все ненавидят Гитлера / Everybody Hates Hitler
14. Метод проб и ошибок / Trial and Error
15. Человек собаке друг... и даже больше / Man's Best Friend with
16. Вспоминая Титанов / Remember the Titans
17. Прощай, незнакомец / Goodbye Stranger
18. Чудища и Чудики / Freaks and Geeks
19. Таксист / Taxi Driver
20. Игромания / Pac-Man Fever
21. Побег от реальности / The Great Escapist
22. Отголоски прошлого / Clip Show
23. Жертва / Sacrifice
Общее
Уникальный идентификатор : 252417767067484324199958669283256674437 (0xBDE5E4C3904523B05A8385CC02D3A885)
Полное имя : D:Supernatural.S08.720p.WEB-DL.Rus.Eng.novafilm.tvSupernatural.S08E21.720p.WEB-DL.Rus.Eng.novafilm.tv.mkv
Формат : Matroska
Размер файла : 1,46 Гбайт
Продолжительность : 42 м.
Общий поток : 4932 Кбит/сек
Дата кодирования : UTC 2013-05-05 10:18:28
Программа кодирования : mkvmerge v6.1.0 ('Old Devil') built on Mar 2 2013 22:22:31
Библиотека кодирования : libebml v1.3.0 + libmatroska v1.4.0
Обложка : Yes / Yes

Видео
Идентификатор : 1
Формат : AVC
Формат/Информация : Advanced Video Codec
Профиль формата : High@L3.1
Параметр CABAC формата : Нет
Параметр ReFrames формата : 2 кадра
Параметры GOP формата : M=2, N=26
Идентификатор кодека : V_MPEG4/ISO/AVC
Продолжительность : 42 м.
Битрейт : 4066 Кбит/сек
Ширина : 1280 пикс.
Высота : 720 пикс.
Соотношение сторон : 16:9
Частота кадров : 23,976 кадр/сек
Цветовое пространство : YUV
Подвыборка цветности : 4:2:0
Битовая глубина : 8 бит
Тип развёртки : Прогрессивная
Бит/(Пиксели*Кадры) : 0.184
Размер потока : 1,20 Гбайт (82%)
Заголовок : Supernatural - Season 8, Episode 21: The Great Escapist ("Побег от Реальности")
Язык : English
Основные цвета : BT.709-5, BT.1361, IEC 61966-2-4, SMPTE RP177
Характеристики трансфера : BT.709-5, BT.1361
Коэффициенты матрицы : BT.709-5, BT.1361, IEC 61966-2-4 709, SMPTE RP177

Аудио #1
Идентификатор : 2
Формат : AC-3
Формат/Информация : Audio Coding 3
Расширение режима : CM (complete main)
Идентификатор кодека : A_AC3
Продолжительность : 42 м.
Вид битрейта : Постоянный
Битрейт : 384 Кбит/сек
Каналы : 6 каналов
Расположение каналов : Front: L C R, Side: L R, LFE
Частота : 48,0 КГц
Битовая глубина : 16 бит
Метод сжатия : С потерями
Размер потока : 116 Мбайт (8%)
Заголовок : Dolby Digital 5.1 @ 384 kbps
Язык : Russian

Аудио #2
Идентификатор : 3
Формат : AC-3
Формат/Информация : Audio Coding 3
Расширение режима : CM (complete main)
Идентификатор кодека : A_AC3
Продолжительность : 42 м.
Вид битрейта : Постоянный
Битрейт : 384 Кбит/сек
Каналы : 6 каналов
Расположение каналов : Front: L C R, Side: L R, LFE
Частота : 48,0 КГц
Битовая глубина : 16 бит
Метод сжатия : С потерями
Размер потока : 116 Мбайт (8%)
Заголовок : Dolby Digital 5.1 @ 384 kbps
Язык : English

Текст
Идентификатор : 4
Формат : ASS
Идентификатор кодека : S_TEXT/ASS
Идентификатор кодека/Информация : Advanced Sub Station Alpha
Метод сжатия : Без потерь
Заголовок : Forced
Язык : Russian



Скачать Сверхъестественное.Supernatural.(сезон.08).(Роберт.Сингер).[2012.мистика.ужасы.триллер.драма.HDTVRip].[720p].[MVO.(NovaFilm)].torrent без регистрации
Золото ЗОЛОТАЯ РАЗДАЧА! СКАЧАННОЕ НЕ ЗАСЧИТЫВАЕТСЯ! Золото
Дата: Зарегистрирован   [ Тип: внутренний ] Как тут cкачать?
MAGNET ссылка
MAGNET ссылка


Скачать .torrent

85 KB

Статус: проверено DHT
Скачан: торрент - 486 раз, раздача полностью - 702 раз
Размер: 32,75 GB
Оценка:  5 (Голосов: 2)
Поблагодарили: 7
Поделиться ссылкой на эту раздачу с друзьями:
В контактеFacebookОдноклассникиTwitterLivejournalМой МирLiveinternet
 

 

МихаНЕзатор

[] 

Раздача обновлена
 
Показать сообщения:    


Вы не можете начинать темы
Вы не можете отвечать на сообщения
Вы не можете редактировать свои сообщения
Вы не можете удалять свои сообщения
Вы не можете голосовать в опросах
Вы не можете прикреплять файлы к сообщениям
Вы можете скачивать файлы