Loading...
Error

Скачать Золото дураков / Fool's Gold (Энди Теннант) [2008, комедия, мелодрама, приключения, BDRip-AVC] [Dub]+[AVO]+[Sub] торрент без регистрации

 
Статистика раздачи
Размер:  3,18 GB   |    Скачан:  123 раза
Сидов:  1  [  0 KB/s  ]  
 
Автор Сообщение

Marsianka

[] 

Информация о фильме
Название: Золото дураков
Оригинальное название: Fool's Gold
Год выхода: 2008
Жанр: комедия, мелодрама, приключения
Режиссер: Энди Теннант
В ролях: Мэттью МакКонахи, Кейт Хадсон, Дональд Сазерленд, Рэй Уинстон, Алексис Дзена, Юэн Бремнер, Роджер Сиберрас, Брайан Хукс, Мэлколм-Джамал Уорнер, Николас Купер, Кевин Харт, Джейсон Дандэс, Клементин Хит, Тодд Лэсэнс, Валентино дель Торо

О фильме:
История о двух кладоискателях, которые сначала развелись, разочаровавшись в своём увлечении и друг в друге, а затем разом напали на след настоящего сокровища. Бенн "Финн" Финнеган серфер и охотник за сокровищами, помешанный на идее отыскать легендарное королевское приданое 40 с ундуков с сокровищами, затонувшими в 1715-м году в море. Когда в его руках оказывается заветная подсказка о местонахождения клада, начинается неслыханная гонка за сокровищами.



Страна: США
Студия: Warner Bros. Pictures Co.
Продолжительность: 01:52:26
Перевод: Дублированный, авторский (одноголосый закадровый)

Файл
Кодек: h264
Качество: BDRip-AVC
Видео: MPEG-4 AVC, 2514 Кбит/с, 1024x424, 23.976 кадр/с

Звук:
1: Русский (АC3, 6 ch, 384 Кбит/с) Дублированный
2: Русский (АC3, 6 ch, 384 Кбит/с) Авторский одноголосый [Юрий Немахов] (с DVD от Киномании)
3: Русский (АC3, 6 ch, 384 Кбит/с)

Субтитры: Русские, английские

Полное имя : Zoloto.durakov.2008.x264.BDRip.(AVC).0ptimus.mkv
Формат : Matroska
Версия формата : Version 2
Размер файла : 3,18 Гбайт
Продолжительность : 1 ч. 52 м.
Общий поток : 4044 Кбит/сек
Название фильма : Золото дураков / Fool's Gold [2008] -=BDRip (AVC) by 0ptimus=-
Дата кодирования : UTC 2012-11-21 16:13:06
Программа кодирования : mkvmerge v5.8.0 ('No Sleep / Pillow') built on Sep 2 2012 15:37:04
Библиотека кодирования : libebml v1.2.3 + libmatroska v1.3.0

Видео
Идентификатор : 1
Формат : AVC
Формат/Информация : Advanced Video Codec
Профиль формата : High@L4.1
Параметр CABAC формата : Да
Параметр ReFrames формата : 9 кадров
Идентификатор кодека : V_MPEG4/ISO/AVC
Битрейт : 2514 Кбит/сек
Ширина : 1024 пикселя
Высота : 424 пикселя
Соотношение сторон : 2,40:1
Режим частоты кадров : Переменный
Частота кадров в оригинале : 23,976 кадра/сек
Цветовое пространство : YUV
Субдискретизация насыщенности : 4:2:0
Битовая глубина : 8 бит
Тип развёртки : Прогрессивная
Бит/(Пиксели*Кадры) : 0.242
Заголовок : Rip by 0ptimus
Библиотека кодирования : x264 core 129 r2230 1cffe9f
Настройки программы : cabac=1 / ref=9 / deblock=1:-3:-3 / analyse=0x3:0x113 / me=umh / subme=11 / psy=1 / psy_rd=1.00:0.20 / mixed_ref=1 / me_range=32 / chroma_me=1 / trellis=2 / 8x8dct=1 / cqm=0 / deadzone=21,11 / fast_pskip=0 / chroma_qp_offset=-3 / threads=4 / lookahead_threads=1 / sliced_threads=0 / nr=0 / decimate=0 / interlaced=0 / bluray_compat=0 / constrained_intra=0 / bframes=11 / b_pyramid=2 / b_adapt=2 / b_bias=0 / direct=3 / weightb=1 / open_gop=0 / weightp=2 / keyint=240 / keyint_min=23 / scenecut=40 / intra_refresh=0 / rc_lookahead=40 / rc=2pass / mbtree=0 / bitrate=2514 / ratetol=1.0 / qcomp=0.60 / qpmin=0 / qpmax=69 / qpstep=4 / cplxblur=20.0 / qblur=0.5 / vbv_maxrate=50000 / vbv_bufsize=50000 / nal_hrd=none / ip_ratio=1.40 / pb_ratio=1.30 / aq=1:1.00
Язык : English
Default : Да
Forced : Да

Аудио #1
Идентификатор : 2
Формат : AC-3
Формат/Информация : Audio Coding 3
Расширение режима : CM (complete main)
Параметр Endianness формата : Big
Идентификатор кодека : A_AC3
Продолжительность : 1 ч. 52 м.
Вид битрейта : Постоянный
Битрейт : 384 Кбит/сек
Каналы : 6 каналов
Расположение каналов : Front: L C R, Side: L R, LFE
Частота : 48,0 КГц
Битовая глубина : 16 бит
Метод сжатия : С потерями
Размер потока : 309 Мбайт (9%)
Заголовок : Дублированный
Язык : Russian
Default : Да
Forced : Да

Аудио #2
Идентификатор : 3
Формат : AC-3
Формат/Информация : Audio Coding 3
Расширение режима : CM (complete main)
Параметр Endianness формата : Big
Идентификатор кодека : A_AC3
Продолжительность : 1 ч. 52 м.
Вид битрейта : Постоянный
Битрейт : 384 Кбит/сек
Каналы : 6 каналов
Расположение каналов : Front: L C R, Side: L R, LFE
Частота : 48,0 КГц
Битовая глубина : 16 бит
Метод сжатия : С потерями
Размер потока : 309 Мбайт (9%)
Заголовок : Авторский [Юрий Немахов]
Default : Нет
Forced : Нет

Аудио #3
Идентификатор : 4
Формат : AC-3
Формат/Информация : Audio Coding 3
Расширение режима : CM (complete main)
Параметр Endianness формата : Big
Идентификатор кодека : A_AC3
Продолжительность : 1 ч. 52 м.
Вид битрейта : Постоянный
Битрейт : 384 Кбит/сек
Каналы : 6 каналов
Расположение каналов : Front: L C R, Side: L R, LFE
Частота : 48,0 КГц
Битовая глубина : 16 бит
Метод сжатия : С потерями
Размер потока : 309 Мбайт (9%)
Заголовок : Дублированный
Язык : Ukrainian
Default : Нет
Forced : Нет

Аудио #4
Идентификатор : 5
Формат : AC-3
Формат/Информация : Audio Coding 3
Расширение режима : CM (complete main)
Параметр Endianness формата : Big
Идентификатор кодека : A_AC3
Продолжительность : 1 ч. 52 м.
Вид битрейта : Постоянный
Битрейт : 384 Кбит/сек
Каналы : 6 каналов
Расположение каналов : Front: L C R, Side: L R, LFE
Частота : 48,0 КГц
Битовая глубина : 16 бит
Метод сжатия : С потерями
Размер потока : 309 Мбайт (9%)
Язык : English
Default : Нет
Forced : Нет

Текст #1
Идентификатор : 6
Формат : UTF-8
Идентификатор кодека : S_TEXT/UTF8
Идентификатор кодека/Информация : UTF-8 Plain Text
Язык : Russian
Default : Нет
Forced : Нет

Текст #2
Идентификатор : 7
Формат : UTF-8
Идентификатор кодека : S_TEXT/UTF8
Идентификатор кодека/Информация : UTF-8 Plain Text
Язык : English
Default : Нет
Forced : Нет

Меню
00:00:00.000 : :Missing the Boat
00:06:51.411 : :Imperfect
00:09:28.901 : :Drop Anchor
00:15:07.573 : :Dash to Divorce
00:21:36.128 : :Sticking It to Him
00:25:33.365 : :Finn's Genius
00:30:55.520 : :Hat Trick
00:35:23.788 : :Welcome Aboard
00:38:57.835 : :Treasure Tale
00:47:10.994 : :Already Taken
00:51:34.424 : :Gemma's Turn
00:56:03.026 : :Not Together
01:00:26.122 : :For What It's Worth
01:02:48.598 : :Bigg Bunny Bargaining
01:08:26.936 : :So Close to the Answer
01:13:28.237 : :The Aurelia
01:18:46.221 : :Diary Secrets
01:25:29.290 : :Half a Getaway
01:28:26.134 : :Blowing Gold
01:32:18.699 : :Underwater Rescue
01:36:29.617 : :Reluctant Passenger
01:39:50.484 : :Playing Pilot
01:43:28.368 : :From Crash to Crush
01:46:46.066 : :The Queen's Dowry
01:48:05.479 : :End Credits
01:52:26.281 : :Missing the Boat

x264 [info]: frame I:1579 Avg QP:15.63 size: 67875
x264 [info]: frame P:35980 Avg QP:18.81 size: 25009
x264 [info]: frame B:124195 Avg QP:20.42 size: 8940
Релиз от: 0ptimus



Скачать Золото.дураков.Fool's.Gold.(Энди.Теннант).[2008.комедия.мелодрама.приключения.BDRip-AVC].[Dub]+[AVO]+[Sub].torrent без регистрации
Золото ЗОЛОТАЯ РАЗДАЧА! СКАЧАННОЕ НЕ ЗАСЧИТЫВАЕТСЯ! Золото
Дата: Зарегистрирован   [ Тип: внутренний ] Как тут cкачать?
MAGNET ссылка
MAGNET ссылка


Скачать .torrent

17 KB

Статус: проверено DHT
Скачан: торрент - 123 раз, раздача полностью - 38 раз
Размер: 3,18 GB
Оценка:  - (Голосов: 0)
Поблагодарили: 2
Поделиться ссылкой на эту раздачу с друзьями:
В контактеFacebookОдноклассникиTwitterLivejournalМой МирLiveinternet
 

 
Показать сообщения:    


Вы не можете начинать темы
Вы не можете отвечать на сообщения
Вы не можете редактировать свои сообщения
Вы не можете удалять свои сообщения
Вы не можете голосовать в опросах
Вы не можете прикреплять файлы к сообщениям
Вы можете скачивать файлы