Loading...
Error

Скачать Ходячие мертвецы / The Walking Dead (сезон 03) (Фрэнк Дарабонт, Эрнест Р. Дикерсон, Гай Ферленд) [2012, ужасы, триллер, драма, WEB-DLRip] [MVO (LostFilm)] торрент без регистрации

 
Статистика раздачи
Размер:  9,5 GB   |    Скачан:  896 раз
Сидов:  1  [  104 KB/s  ]   Личеров:  1  [  0 KB/s  ]  
 
Автор Сообщение

МихаНЕзатор

[] 

Название: Ходячие мертвецы
Оригинальное название: The Walking Dead
Год выхода: 2012
Жанр: ужасы, триллер, драма
Режиссер: Фрэнк Дарабонт, Эрнест Р. Дикерсон, Гай Ферленд

В ролях: Джон Бернтал, Джеффри ДеМанн, Лори Холден, Эндрю Линкольн, Адам Минарович, Чендлер Риггз, Майкл Рукер, Сара Уэйн Кэллис

Описание: Вирус превратил жителей Земли в зомби. Небольшая группа выживших изо дня в день борется за существование в новом, враждебном мире. Под предводительством бывшего полицейского Рика они ищут безопасное для жизни место. Но не стоит заблуждаться зомби отнюдь не самое страшное, что ждет наших героев. Основная опасность другие оставшиеся в живых...

Страна: США
Студия изготовитель: AMC Studios, American Movie Classics (AMC), Circle of Confusion, Darkwoods Productions, Valhalla Motion Pictures
Продолжительность: 06 x ~ 00:45:00
Перевод: Профессиональный (многоголосый, закадровый) LostFilm

Релиз от:

Качество: WEB-DLRip
Формат: AVI
Видео кодек: XviD
Аудио кодек: MP3
Видео: 720x400, 23.976 fps, MPEG-4 ~1700 kbps avg, ~0.269 bit/pixel
Аудио: MP3, 48.0 KHz, 2 ch, 192 Kbps

03.04.2013 г. торент обновлён, добавлена 16-я серия, залито полностью!

01. Семя (Seed)
02. Больные (Sick)
03. Идем со мной (Walk with Me)
04. Убийца внутри (Killer Within)
05. Как прикажешь (Say the Word)
06. Затравленные (Hounded)
07. Когда покойники стучатся (When the Dead Come Knocking)
08. Вынужденные страдать (Made to Suffer)
09. Червовый король
10. Дома
11. Я не Иуда / I Ain't a Judas
12. Очистись / Clear
13. Стрела в дверном косяке / Arrow on the Doorpost
14. Добыча / Prey
15. Эта горестная жизнь / This Sorrowful Life
16. Добро пожаловать в могилы / «Welcome to the Tombs
Формат : AVI
Формат/Информация : Audio Video Interleave
Размер файла : 636 Мбайт
Продолжительность : 43 м.
Общий поток : 2054 Кбит/сек
Программа кодирования : Nandub v1.0rc2
Библиотека кодирования : Nandub build 1853/release

Видео
Идентификатор : 0
Формат : MPEG-4 Visual
Профиль формата : Simple@L3
Параметр BVOP формата : Нет
Параметр QPel формата : Нет
Параметр GMC формата : Без точки перехода
Параметр матрицы формата : Default (H.263)
Идентификатор кодека : XVID
Идентификатор кодека/Подсказка : XviD
Продолжительность : 43 м.
Битрейт : 1856 Кбит/сек
Ширина : 720 пикс.
Высота : 400 пикс.
Соотношение сторон : 16:9
Частота кадров : 23,976 кадр/сек
Цветовое пространство : YUV
Подвыборка цветности : 4:2:0
Битовая глубина : 8 бит
Тип развёртки : Прогрессивная
Метод сжатия : С потерями
Бит/(Пиксели*Кадры) : 0.269
Размер потока : 574 Мбайт (90%)
Библиотека кодирования : XviD 1.2.1 (UTC 2008-12-04)

Аудио
Идентификатор : 1
Формат : MPEG Audio
Версия формата : Version 1
Профиль формата : Layer 3
Режим : Joint stereo
Идентификатор кодека : 55
Идентификатор кодека/Подсказка : MP3
Продолжительность : 43 м.
Вид битрейта : Переменный
Битрейт : 192 Кбит/сек
Каналы : 2 канала
Частота : 48,0 КГц
Метод сжатия : С потерями
Размер потока : 57,4 Мбайт (9%)
Выравнивание : Соединение по промежуткам
Продолжительность промежутка : 24 мс. (0,58 видеокадр)
Время предзагрузки промежутка : 472 ms
Библиотека кодирования : LAME3.97b
Настройки программы : -m j -V 4 -q 3 -lowpass 18.6 --abr 192



Скачать Ходячие.мертвецы.The.Walking.Dead.(сезон.03).(Фрэнк.Дарабонт.Эрнест.Р.Дикерсон.Гай.Ферленд).[2012.ужасы.триллер.драма.WEB-DLRip].[MVO.(LostFilm)].torrent без регистрации
Золото ЗОЛОТАЯ РАЗДАЧА! СКАЧАННОЕ НЕ ЗАСЧИТЫВАЕТСЯ! Золото
Дата: Зарегистрирован   [ Тип: внутренний ] Как тут cкачать?
MAGNET ссылка
MAGNET ссылка


Скачать .torrent

26 KB

Статус: проверено DHT
Скачан: торрент - 896 раз, раздача полностью - 418 раз
Размер: 9,5 GB
Оценка:  5 (Голосов: 9)
Поблагодарили: 20
Поделиться ссылкой на эту раздачу с друзьями:
В контактеFacebookОдноклассникиTwitterLivejournalМой МирLiveinternet
 

 

МихаНЕзатор

[] 

Раздача обновлена
 
Показать сообщения:    


Вы не можете начинать темы
Вы не можете отвечать на сообщения
Вы не можете редактировать свои сообщения
Вы не можете удалять свои сообщения
Вы не можете голосовать в опросах
Вы не можете прикреплять файлы к сообщениям
Вы можете скачивать файлы