Loading...
Error

Скачать Изображая Бога / Playing God (Энди Уилсон / Andy Wilson) [1997, триллер, драма, криминал, HDRip] [MVO] торрент без регистрации

 
Статистика раздачи
Размер:  1,46 GB   |    Скачан:  132 раза
Сидов:  1  [  0 KB/s  ]  
 
Автор Сообщение

proljot2615

[] 


Изображая Бога / Playing God


Год выпуска: 1997
Выпущено: США
Жанр: триллер, драма, криминал
Продолжительность: 01:34:05.927
Перевод: Профессиональный (многоголосый)

Режиссер: Энди Уилсон / Andy Wilson

В ролях: Дэвид Духовны, Тимоти Хаттон, Анджелина Джоли, Майкл Масси, Петер Стормаре, Эндрю Тирнан, Гари Дурдан, Джон Хоукс, Уилл Стюарт, Филип Мун, Павел Личникофф, Трейси Уолтер, Сандра Киндер, Билл Розье, Кион Янг, Эрик ДаРе, Гарет Уильямс, Тео, Стэйси Трэвис, Макс Лазар, Фрэнк Энсайн, Боб Дженнингс, Росс Кеттл, Никки Ли, Джон Роселиус, Дэймон Уайт, Дэн Хилдебранд, Дж.П. Джонс, Джерри Слоун, Альфонсе Уолтер, Мелвин Джонс, Мара Дуронслет, Эрнест М. Гарсиа, Алекс Десерт, Сара Ставру, Джесси Перез, Майкл Чонг, Александр Фолк, Стелла Гарсиа, Гай Сайнер

Описание: Блестящего хирурга лишают лицензии за употребление наркотиков — у него под ножом умерла пациентка. Избрав себе в качестве утешителя синтетический заменитель героина, он большую часть времени пребывает в состоянии, позволяющем забыть о прошлом и будущем. При покупке очередной дозы в баре, он становится свидетелем бандитской разборки и спасает жизнь одному из раненых, применив свой талант хирурга. Глава одной из группировок предлагает доктору практиковать нелегально. 10000 за операцию — а пациентов хватает — оказываются веским аргументом, да и у самого хирурга руки тоскуют по скальпелю. Он соглашается…







Качество: HDRip
Формат: AVI
Видео кодек: XviD
Аудио кодек: AC3
Видео: 720x400 (1.80:1), 23.976 fps, XviD MPEG-4 ~2078 kbps avg, 0.30 bit/pixel
Аудио: 48 kHz, AC3 Dolby Digital, 2/0 (L,R) ch, ~128 kbps




Формат : AVI
Формат/Информация : Audio Video Interleave
Размер файла : 1,46 Гбайт
Продолжительность : 1 ч. 34 м.
Общий поток : 2216 Кбит/сек
Библиотека кодирования : VirtualDub build 30091/release

Видео
Идентификатор : 0
Формат : MPEG-4 Visual
Профиль формата : Advanced Simple@L5
Параметр BVOP формата : 2
Параметр QPel формата : Нет
Параметр GMC формата : Без точки перехода
Параметр матрицы формата : Default (H.263)
Режим смешивания : Сжатый битовый поток
Идентификатор кодека : XVID
Идентификатор кодека/Подсказка : XviD
Продолжительность : 1 ч. 34 м.
Битрейт : 2079 Кбит/сек
Ширина : 720 пикс.
Высота : 400 пикс.
Соотношение сторон : 16:9
Частота кадров : 23,976 кадр/сек
Цветовое пространство : YUV
Подвыборка цветности : 4:2:0
Битовая глубина : 8 бит
Тип развёртки : Прогрессивная
Метод сжатия : С потерями
Бит/(Пиксели*Кадры) : 0.301
Размер потока : 1,37 Гбайт (94%)
Библиотека кодирования : XviD 64

Аудио
Идентификатор : 1
Формат : AC-3
Формат/Информация : Audio Coding 3
Расширение режима : CM (complete main)
Идентификатор кодека : 2000
Продолжительность : 1 ч. 34 м.
Вид битрейта : Постоянный
Битрейт : 128 Кбит/сек
Каналы : 2 канала
Расположение каналов : Front: L R
Частота : 48,0 КГц
Битовая глубина : 16 бит
Метод сжатия : С потерями
Размер потока : 86,1 Мбайт (6%)
Выравнивание : Соединение по промежуткам
Продолжительность промежутка : 42 мс. (1,00 видеокадр)
Время предзагрузки промежутка : 512 ms





Скачать Изображая.Бога.Playing.God.(Энди.Уилсон.Andy.Wilson).[1997.триллер.драма.криминал.HDRip].[MVO].torrent без регистрации
Золото ЗОЛОТАЯ РАЗДАЧА! СКАЧАННОЕ НЕ ЗАСЧИТЫВАЕТСЯ! Золото
Дата: Зарегистрирован   [ Тип: внутренний ] Как тут cкачать?
MAGNET ссылка
MAGNET ссылка


Скачать .torrent

15 KB

Статус: проверено DHT
Скачан: торрент - 132 раз, раздача полностью - 3 раз
Размер: 1,46 GB
Оценка:  - (Голосов: 0)
Поблагодарили: 1
Поделиться ссылкой на эту раздачу с друзьями:
В контактеFacebookОдноклассникиTwitterLivejournalМой МирLiveinternet
 

 
Показать сообщения:    


Вы не можете начинать темы
Вы не можете отвечать на сообщения
Вы не можете редактировать свои сообщения
Вы не можете удалять свои сообщения
Вы не можете голосовать в опросах
Вы не можете прикреплять файлы к сообщениям
Вы можете скачивать файлы