Loading...
Error

Скачать Очень дикие штучки / Very Bad Things (Питер Берг) [1998, комедия, триллер, криминал, BDRip-AVC] [MVO]+[AVO]+[Sub] торрент без регистрации

 
Статистика раздачи
Размер:  2,9 GB   |    Скачан:  123 раза

Полного источника не было: 24 минуты

 
Автор Сообщение

Marsianka

[] 

Информация о фильме
Название: Очень дикие штучки
Оригинальное название: Very Bad Things
Год выхода: 1998
Жанр: комедия, триллер, криминал
Режиссер: Питер Берг
В ролях: Джон Фавро, Лиленд Орсер, Кэмерон Диаз, Кристиан Слэйтер, Роб Браунштейн, Джереми Пивен, Дэниел Стерн, Джинн Трипплхорн, Джои Зиммерман, Тайлер Коул Малингер, Кобе Таи, Расселл Б. МакКензи, Блейк Гиббонс, Лоуренс Прессман, Стив Фичпатрик, Брайан Грэндисон, Линда Клейн, Бирн Пивен, Боб Бэнкрофт, Трей Дэвис, Мэрлин Макинтайр

О фильме:
Наконец-то наступил момент, которого счастливчик Кайл Фишер так долго ждал! Через несколько дней он женится на очаровательной Лоре Гэррети, а сегодня друзья устроят ему сногсшибательную холостяцкую вечеринку в Лас-Вегасе. Только он еще не знает, что они случайно убьют проститутку, приглашенную развлекать их, а потом совершат роковую ошибку, решив скрыть следы преступления, и тогда им придется убить работника отеля, который так не вовремя наведается к ним. Что удивительно, это сойдет им с рук, но вскоре у друзей Кайла начнутся угрызения совести, и тогда их нужно будет уговаривать, а если ничего из этого не выйдет - что ж, никто не заметит в лас-вегасской пустыне несколько свежих могил!



Страна: США
Продолжительность: 01:40:16
Перевод: Профессиональный многоголосый, авторский одноголосый
Субтитры: Русские
Дата релиза: 22.11.2012

Файл
Кодек: H.264
Качество: BDRip (AVC) (BDRemux (1080p))
Видео: MPEG-4 AVC, 2799 Кбит/с, 1024x554, 23.976 кадра/с
Звук:
Аудио 1: Русский (AC3, 6 ch, 448 Кбит/с) - многоголосый
Аудио 2: Русский (AC3, 6 ch, 448 Кбит/с) - одноголосый (Ю. Живов)
Аудио 3: Английский (AC3, 6 ch, 448 Кбит/с)

Семпл
Общее
Уникальный идентификатор : 230340986250678995997647647239071885149 (0xAD4A0F6EC5792D68B06CFC2C2EF8675D)
Полное имя : G:фильмыOchen.dikie.shtuchki.1998.x264.BDRip.(AVC).ExKinoRay.mkv
Формат : Matroska
Версия формата : Version 2
Размер файла : 2,90 Гбайт
Продолжительность : 1 ч. 40 м.
Общий поток : 4143 Кбит/сек
Название фильма : Ochen.dikie.shtuchki.1998.x264.BDRip.(AVC).ExKinoRay
Дата кодирования : UTC 2012-11-22 14:28:40
Программа кодирования : mkvmerge v4.0.0 ('The Stars were mine') сборка от Jun 6 2010 16:18:42
Библиотека кодирования : libebml v1.0.0 + libmatroska v1.0.0

Видео
Идентификатор : 1
Формат : AVC
Формат/Информация : Advanced Video Codec
Профиль формата : High@L4.1
Параметр CABAC формата : Да
Параметр ReFrames формата : 8 кадров
Идентификатор кодека : V_MPEG4/ISO/AVC
Продолжительность : 1 ч. 40 м.
Битрейт : 2799 Кбит/сек
Ширина : 1024 пикселя
Высота : 554 пикселя
Соотношение сторон : 16:9
Частота кадров : 23,976 кадра/сек
Цветовое пространство : YUV
Субдискретизация насыщенности : 4:2:0
Битовая глубина : 8 бит
Тип развёртки : Прогрессивная
Бит/(Пиксели*Кадры) : 0.206
Размер потока : 1,90 Гбайт (66%)
Заголовок : Rip by Enigma-Vladislav71
Библиотека кодирования : x264 core 116 r2074 2641b9e
Настройки программы : cabac=1 / ref=8 / deblock=1:-2:-2 / analyse=0x3:0x133 / me=umh / subme=11 / psy=1 / psy_rd=1.00:0.00 / mixed_ref=1 / me_range=48 / chroma_me=1 / trellis=2 / 8x8dct=1 / cqm=0 / deadzone=21,11 / fast_pskip=0 / chroma_qp_offset=-2 / threads=3 / sliced_threads=0 / nr=0 / decimate=0 / interlaced=0 / bluray_compat=0 / constrained_intra=0 / bframes=8 / b_pyramid=2 / b_adapt=2 / b_bias=0 / direct=3 / weightb=1 / open_gop=0 / weightp=2 / keyint=240 / keyint_min=23 / scenecut=40 / intra_refresh=0 / rc=2pass / mbtree=0 / bitrate=2799 / ratetol=1.0 / qcomp=0.60 / qpmin=10 / qpmax=51 / qpstep=4 / cplxblur=20.0 / qblur=0.5 / ip_ratio=1.40 / pb_ratio=1.30 / aq=2:1.00
Язык : English
Default : Нет
Forced : Нет

Аудио #1
Идентификатор : 2
Формат : AC-3
Формат/Информация : Audio Coding 3
Расширение режима : CM (complete main)
Идентификатор кодека : A_AC3
Продолжительность : 1 ч. 40 м.
Вид битрейта : Постоянный
Битрейт : 448 Кбит/сек
Каналы : 6 каналов
Расположение каналов : Front: L C R, Side: L R, LFE
Частота : 48,0 КГц
Битовая глубина : 16 бит
Метод сжатия : С потерями
Размер потока : 321 Мбайт (11%)
Заголовок : многоголосый
Язык : Russian
Default : Да
Forced : Нет

Аудио #2
Идентификатор : 3
Формат : AC-3
Формат/Информация : Audio Coding 3
Расширение режима : CM (complete main)
Идентификатор кодека : A_AC3
Продолжительность : 1 ч. 40 м.
Вид битрейта : Постоянный
Битрейт : 448 Кбит/сек
Каналы : 6 каналов
Расположение каналов : Front: L C R, Side: L R, LFE
Частота : 48,0 КГц
Битовая глубина : 16 бит
Метод сжатия : С потерями
Размер потока : 321 Мбайт (11%)
Заголовок : Живов
Язык : Russian
Default : Нет
Forced : Нет

Аудио #3
Идентификатор : 4
Формат : AC-3
Формат/Информация : Audio Coding 3
Расширение режима : CM (complete main)
Идентификатор кодека : A_AC3
Продолжительность : 1 ч. 40 м.
Вид битрейта : Постоянный
Битрейт : 448 Кбит/сек
Каналы : 6 каналов
Расположение каналов : Front: L C R, Side: L R, LFE
Частота : 48,0 КГц
Битовая глубина : 16 бит
Метод сжатия : С потерями
Размер потока : 321 Мбайт (11%)
Заголовок : английский
Язык : English
Default : Нет
Forced : Нет

Текст
Идентификатор : 5
Формат : UTF-8
Идентификатор кодека : S_TEXT/UTF8
Идентификатор кодека/Информация : UTF-8 Plain Text
Язык : Russian
Default : Да
Forced : Нет

Меню
00:00:00.000 : en:Chapter 01
00:05:00.000 : en:Chapter 02
00:10:00.000 : en:Chapter 03
00:15:00.000 : en:Chapter 04
00:20:00.000 : en:Chapter 05
00:25:00.000 : en:Chapter 06
00:30:00.000 : en:Chapter 07
00:35:00.000 : en:Chapter 08
00:40:00.000 : en:Chapter 09
00:45:00.000 : en:Chapter 10
00:50:00.000 : en:Chapter 11
00:55:00.000 : en:Chapter 12
01:00:00.000 : en:Chapter 13
01:05:00.000 : en:Chapter 14
01:10:00.000 : en:Chapter 15
01:15:00.000 : en:Chapter 16
01:20:00.000 : en:Chapter 17
01:25:00.000 : en:Chapter 18
01:30:00.000 : en:Chapter 19
01:35:00.000 : en:Chapter 20
01:40:00.000 : en:Chapter 21
Релиз от:

Авторы релиза:



Скачать Очень.дикие.штучки.Very.Bad.Things.(Питер.Берг).[1998.комедия.триллер.криминал.BDRip-AVC].[MVO]+[AVO]+[Sub].torrent без регистрации
Золото ЗОЛОТАЯ РАЗДАЧА! СКАЧАННОЕ НЕ ЗАСЧИТЫВАЕТСЯ! Золото
Дата: Зарегистрирован   [ Тип: внутренний ] Как тут cкачать?
MAGNET ссылка
MAGNET ссылка


Скачать .torrent

15 KB

Статус: проверено DHT
Скачан: торрент - 123 раз, раздача полностью - 5 раз
Размер: 2,9 GB
Оценка:  - (Голосов: 0)
Поблагодарили: 2
Поделиться ссылкой на эту раздачу с друзьями:
В контактеFacebookОдноклассникиTwitterLivejournalМой МирLiveinternet
 

 
Показать сообщения:    


Вы не можете начинать темы
Вы не можете отвечать на сообщения
Вы не можете редактировать свои сообщения
Вы не можете удалять свои сообщения
Вы не можете голосовать в опросах
Вы не можете прикреплять файлы к сообщениям
Вы можете скачивать файлы