Loading...
Error

Скачать Матильда / Matilda (Дэнни ДеВито) [1996, комедия, семейный, WEB-DLRip] [Dub]+[MVO]+[AVO]+[Sub] торрент без регистрации

 
Статистика раздачи
Размер:  2,02 GB   |    Скачан:  143 раза

Полного источника не было: 24 минуты

 
Автор Сообщение

Marsianka

[] 

Информация о фильме
Название: Матильда
Оригинальное название: Matilda
Год выхода: 1996
Жанр: комедия, семейный
Режиссер: Дэнни ДеВито
В ролях: Мара Уилсон, Дэнни ДеВито, Риа Перлман, Эмбет Дэвидтц, Пэм Феррис, Пол Рубенс, Трэйси Уолтер, Брайан Левинсон, Джон Ловитц

О фильме:
С самого рождения Матильда очень отличалась от своих родителей жуликоватого папы, торгующего подержанными автомобилями, и мамы, интересующейся только телевизором и своей внешностью, высочайшим уровнем интеллекта и добротой. Читать девочка научилась очень рано, и вскоре в доме не осталось ни одной непрочитанной книги, хотя папа считал, что книги ей вполне мог бы заменить телевизор. В школе у Матильды появились уже совсем невероятные способности она открыла в себе дар перемещать предметы и людей, если её или кого-нибудь обижали. А главной обидчицей была злая директриса школы.



Страна: США
Студия: Tri-Star Pictures
Продолжительность: 01:38:07
Перевод: Дублированный, профессиональный (многоголосый закадровый), авторский (одноголосый закадровый)

Файл
Кодек: XviD
Качество: WEB-DLRip
Видео: 1529 Кбит/с, 720x304, 23.976 кадр/с

Звук:
1: Русский (АC3, 6 ch, 384 Кбит/с) Дублированный [R5]
2: Русский (АC3, 2 ch, 192 Кбит/с) Профессиональный многоголосый [R5]
3: Русский (АC3, 2 ch, 256 Кбит/с) Авторский одноголосый [Леонид Володарский] (Отдельным файлом)
4: Русский (АC3, 2 ch, 192 Кбит/с) Авторский одноголосый [Сергей Кузнецов] (Отдельным файлом)
5: Английский (АC3, 6 ch, 384 Кбит/с) (Отдельным файлом)

Субтитры: Русские, английские

Семпл

Полное имя : Matilda.1996.XviD.WEB-DLRip.avi
Формат : AVI
Формат/Информация : Audio Video Interleave
Размер файла : 1,45 Гбайт
Продолжительность : 1 ч. 38 м.
Общий поток : 2119 Кбит/сек
Программа кодирования : VirtualDubMod 1.5.10.2 (build 2540/release)
Библиотека кодирования : VirtualDubMod build 2540/release

Видео
Идентификатор : 0
Формат : MPEG-4 Visual
Профиль формата : Advanced Simple@L5
Параметр BVOP формата : 2
Параметр QPel формата : Нет
Параметр GMC формата : Без точки перехода
Параметр матрицы формата : Выборочная
Идентификатор кодека : XVID
Идентификатор кодека/Подсказка : XviD
Продолжительность : 1 ч. 38 м.
Битрейт : 1529 Кбит/сек
Ширина : 720 пикселей
Высота : 304 пикселя
Соотношение сторон : 2,35:1
Частота кадров : 23,976 кадра/сек
Цветовое пространство : YUV
Субдискретизация насыщенности : 4:2:0
Битовая глубина : 8 бит
Тип развёртки : Прогрессивная
Метод сжатия : С потерями
Бит/(Пиксели*Кадры) : 0.291
Размер потока : 1,05 Гбайт (72%)
Библиотека кодирования : XviD 64

Аудио #1
Идентификатор : 1
Формат : AC-3
Формат/Информация : Audio Coding 3
Расширение режима : CM (complete main)
Параметр Endianness формата : Big
Идентификатор кодека : 2000
Продолжительность : 1 ч. 38 м.
Вид битрейта : Постоянный
Битрейт : 384 Кбит/сек
Каналы : 6 каналов
Расположение каналов : Front: L C R, Side: L R, LFE
Частота : 48,0 КГц
Битовая глубина : 16 бит
Метод сжатия : С потерями
Размер потока : 269 Мбайт (18%)
Выравнивание : Разделение по промежуткам
Продолжительность промежутка : 42 мс. (1,00 видеокадр)
Время предзагрузки промежутка : 500 мс.

Аудио #2
Идентификатор : 2
Формат : AC-3
Формат/Информация : Audio Coding 3
Профиль формата : Dolby Digital
Расширение режима : CM (complete main)
Параметр Endianness формата : Big
Идентификатор кодека : 2000
Продолжительность : 1 ч. 38 м.
Вид битрейта : Постоянный
Битрейт : 192 Кбит/сек
Каналы : 2 канала
Расположение каналов : Front: L R
Частота : 48,0 КГц
Битовая глубина : 16 бит
Метод сжатия : С потерями
Размер потока : 135 Мбайт (9%)
Выравнивание : Разделение по промежуткам
Продолжительность промежутка : 42 мс. (1,00 видеокадр)
Время предзагрузки промежутка : 500 мс.
Релиз от: 0ptimus



Скачать Матильда.Matilda.(Дэнни.ДеВито).[1996.комедия.семейный.WEB-DLRip].[Dub]+[MVO]+[AVO]+[Sub].torrent без регистрации
Золото ЗОЛОТАЯ РАЗДАЧА! СКАЧАННОЕ НЕ ЗАСЧИТЫВАЕТСЯ! Золото
Дата: Зарегистрирован   [ Тип: внутренний ] Как тут cкачать?
MAGNET ссылка
MAGNET ссылка


Скачать .torrent

11 KB

Статус: проверено DHT
Скачан: торрент - 143 раз, раздача полностью - 249 раз
Размер: 2,02 GB
Оценка:  - (Голосов: 0)
Поблагодарили: 2
Поделиться ссылкой на эту раздачу с друзьями:
В контактеFacebookОдноклассникиTwitterLivejournalМой МирLiveinternet
 

 
Показать сообщения:    


Вы не можете начинать темы
Вы не можете отвечать на сообщения
Вы не можете редактировать свои сообщения
Вы не можете удалять свои сообщения
Вы не можете голосовать в опросах
Вы не можете прикреплять файлы к сообщениям
Вы можете скачивать файлы