Loading...
Error

Скачать Портал юрского периода: Новый мир / Первобытное: Новый мир / Primеvаl: New World (сезон 01) (Аманда Тэппинг, Энди Микита, Мартин Вуд, Майк Рол) [2012, фантастика, драма, HDTVRip, WEB-DLRip] [MVO (BaibaKo)] торрент без регистрации

 
Статистика раздачи
Размер:  7,58 GB   |    Скачан:  354 раза
Сидов:  1  [  0 KB/s  ]  
 
Автор Сообщение

МихаНЕзатор

[] 

Название: Портал юрского периода: Новый мир / Первобытное: Новый мир
Оригинальное название: Primеvаl: New World
Год выпуска: 2012
Страна: Канада , Великобритания
Жанр: фантастика, драма
Продолжительность: 3 х ~00:42:00 мин

Русские субтитры: нет
Режиссёр: Аманда Тэппинг, Энди Микита, Мартин Вуд, Майк Рол
В ролях: Найалл Мэйттер, Сара Каннинг, Кристал Лоу, Миранда Фригон, Джофф Густафссон, Дэнни Рахим, Эндрю Ли Поттс

Описание: На территории Ванкувера неожиданно появляются динозавры и другие доисторические животные. Виной тому - аномалии, созданные порталами в пространстве и времени. Изучением этих аномалий и существ занимаются группа гражданских под предводительством Эвана Кросса.
«Портал юрского периода: Новый мир» научно-фантастический сериал британско-канадского производства. Это спин-офф (ответвление) британского сериала «Портал юрского периода». События разворачиваются после пятого сезона оригинального сериала. Режиссируют сериал Аманда Тэппинг и Энди Микита (Звёздные врата).

Перевод: Профессиональный (многоголосый закадровый) (BaibaKo)
Автор перевода: Янина Галицкая
Озвучка: Светлана Доманова, Татьяна Оболевич, Владимир Курдов и Алексей Кузнецов



Качество: HDTVRip
Формат: AVI
Видео кодек: XviD
Аудио кодек: MP3
Видео: 720x400 (16:9), 23,976 кадра/сек, XviD, 1506 Кбит/сек avg, 0.218 бит/пиксел
Аудио Rus: MPEG Audio layer 3, 2 канала 48,0 КГц 192 Кбит/сек
Аудио Eng: MPEG Audio layer 3, 2 канала 48,0 КГц 192 Кбит/сек

Релиз от:

24.05.2013 г. торент обновлён, добавлена 13 серия. Сезон полностью!

01. Новый мир / The New World
02. Sisiutl /
03. Страх полета / Fear of Flying
04. Angry Birds / Злые птички
05. Undone
06. Зачистка в супермаркете / Clean up on Aisle Three
07. Крошки в лесу / Babes in the Woods
08. Truth / Истина
09. Breakthrough / Прорыв
10. The Great Escape / Большой побег
11. The Inquisition
12. The Sound of Thunder (Part 1)
13. The Sound of Thunder (Part 2)
Формат : AVI
Формат/Информация : Audio Video Interleave
Размер файла : 575 Мбайт
Продолжительность : 42 м.
Общий поток : 1897 Кбит/сек

Видео
Идентификатор : 0
Формат : MPEG-4 Visual
Профиль формата : Advanced Simple@L5
Параметр BVOP формата : 2
Параметр QPel формата : Нет
Параметр GMC формата : Без точки перехода
Параметр матрицы формата : Default (H.263)
Идентификатор кодека : XVID
Идентификатор кодека/Подсказка : XviD
Продолжительность : 42 м.
Битрейт : 1506 Кбит/сек
Ширина : 720 пикс.
Высота : 400 пикс.
Соотношение сторон : 16:9
Частота кадров : 23,976 кадр/сек
Цветовое пространство : YUV
Подвыборка цветности : 4:2:0
Битовая глубина : 8 бит
Тип развёртки : Прогрессивная
Метод сжатия : С потерями
Бит/(Пиксели*Кадры) : 0.218
Размер потока : 456 Мбайт (79%)
Библиотека кодирования : XviD 1.2.1 (UTC 2008-12-04)

Аудио #1
Идентификатор : 1
Формат : MPEG Audio
Версия формата : Version 1
Профиль формата : Layer 3
Режим : Joint stereo
Идентификатор кодека : 55
Идентификатор кодека/Подсказка : MP3
Продолжительность : 42 м.
Вид битрейта : Постоянный
Битрейт : 192 Кбит/сек
Каналы : 2 канала
Частота : 48,0 КГц
Метод сжатия : С потерями
Размер потока : 58,2 Мбайт (10%)
Выравнивание : Соединение по промежуткам
Продолжительность промежутка : 167 мс. (4,00 видеокадра)
Время предзагрузки промежутка : 216 ms
Заголовок : Primеvаl.New.World.s01e01.HDTVRip.x264.Rus.Eng.BaibaKo.tv.mp4_track_1_russian_audio
Библиотека кодирования : LAME3.99r
Настройки программы : -m j -V 4 -q 2 -lowpass 18.6 -b 192

Аудио #2
Идентификатор : 2
Формат : MPEG Audio
Версия формата : Version 1
Профиль формата : Layer 3
Режим : Joint stereo
Расширение режима : MS Stereo
Идентификатор кодека : 55
Идентификатор кодека/Подсказка : MP3
Продолжительность : 42 м.
Вид битрейта : Постоянный
Битрейт : 192 Кбит/сек
Каналы : 2 канала
Частота : 48,0 КГц
Метод сжатия : С потерями
Размер потока : 58,2 Мбайт (10%)
Выравнивание : Соединение по промежуткам
Продолжительность промежутка : 167 мс. (4,00 видеокадра)
Время предзагрузки промежутка : 216 ms
Заголовок : Primеvаl.New.World.s01e01.HDTVRip.x264.Rus.Eng.BaibaKo.tv.mp4_track_2_english_audio
Библиотека кодирования : LAME3.99r
Настройки программы : -m j -V 4 -q 2 -lowpass 18.6 -b 192



Скачать Портал.юрского.периода.Новый.мир.Первобытное.Новый.мир.Primеvаl.New.World.(сезон.01).(Аманда.Тэппинг.Энди.Микита.Мартин.Вуд.Майк.Рол).[2012.фантастика.драма.HDTVRip.WEB-DLRip].[MVO.(BaibaKo)].torrent без регистрации
Золото ЗОЛОТАЯ РАЗДАЧА! СКАЧАННОЕ НЕ ЗАСЧИТЫВАЕТСЯ! Золото
Дата: Зарегистрирован   [ Тип: внутренний ] Как тут cкачать?
MAGNET ссылка
MAGNET ссылка


Скачать .torrent

40 KB

Статус: проверено DHT
Скачан: торрент - 354 раз, раздача полностью - 53 раз
Размер: 7,58 GB
Оценка:  5 (Голосов: 2)
Поблагодарили: 8
Поделиться ссылкой на эту раздачу с друзьями:
В контактеFacebookОдноклассникиTwitterLivejournalМой МирLiveinternet
 

 

МихаНЕзатор

[] 

Раздача обновлена
 
Показать сообщения:    


Вы не можете начинать темы
Вы не можете отвечать на сообщения
Вы не можете редактировать свои сообщения
Вы не можете удалять свои сообщения
Вы не можете голосовать в опросах
Вы не можете прикреплять файлы к сообщениям
Вы можете скачивать файлы