Loading...
Error

Скачать Черный ястреб 2: Зона высадки Ирак / American Soldier (Сидни Дж. Фьюри) [2005, боевик, военный, драма, исторический, HDRip-AVC] [MVO] [Лицензия] торрент без регистрации

 
Статистика раздачи
Размер:  1,4 GB   |    Скачан:  162 раза
Сидов:  1  [  0 KB/s  ]  
 
Автор Сообщение

МихаНЕзатор

[] 

Черный ястреб 2: Зона высадки Ирак / American Soldier (2005) HDRip от TORRENT-45 | Лицензия
Название: Черный ястреб 2: Зона высадки Ирак
Оригинальное название: American Soldier
Год выпуска: 2005
Жанр: боевик, военный, драма, исторический
Режиссер: Сидни Дж. Фьюри
В ролях: Кертис Морган, Zan Calabretta, Джордан Браун, Eddie Della Siepe, Rachael Ancheril, Майкл Белизаро, Филипп Баклэнд, Michael Challenor, Andrea Drepaul, Бен Джилбэнк

Спецотряд армии США, сформированный из различных подразделений, приступает к операции по высадке в Ираке. По плану миссия не должна занять больше часа. Высадка отряда Дельта проходит успешно, однако иракские повстанцы, вооруженные РПГ сбивают вертолеты США. Группа солдат попадает в засаду. Чтобы выйти живыми из этой жестокой схватки, им придется приложить огромные усилия, применить все свои навыки, стать сплоченной командой. Фильм повествует историю смелости, храбрости, показывает всю жестокость войны в Ираке.



Выпущено: Канада
Качество: HDRip
Продолжительность: 01:43:25
Перевод: Профессиональный (многоголосый) [Лицензия]
Формат: MKV
Видео: 720x408 (16:9), 1610kbps, 23,976fps, L5.2, AVC
Аудио: AC3, 384kbps, 6ch, 48kHz
Сохранены оригинальные чаптеры

Релиз от:
Один из тех фильмов, которые сняты плохо, но заинтересуют зрителя наличием в названии чего-то уже известного. Фильм Ридли Скотта «Чёрный ястреб» заполучил любовь и признание зрителей, а критики номинировали ленту в четырёх категориях, но вот с его именем сыграли злую шутку, дав добро на путь продолжения.

Канадские кинематографисты, взявшиеся за «Чёрного ястреба 2», перенесли место действия в Ирак, что отображено в полном названии. Эта война уже давно стала притчей во языцех, никто не верит в праведность вступления натовских войск на территорию азиатского государства, поэтому даже попытка отобразить в сценарии всё-таки человечность солдатских душ из американского контингента не находит отзыва в сердце, на фоне вранья это не имеет должного эффекта. Но за мысль отдельное спасибо, один из позитивных моментов во всей картине.

К тому же сам фильм довольно плохо поставлен. Была продублирована манера съёмки, очень хотелось погрузить в атмосферу реальности происходящего, но качество оставляет желать лучшего, в данном случае одного желания и повторения учителя очень мало. Да вообще то, что показывают, кажется мало натуральным и восприятия военных действий нет и в помине, словно, ребятки решили поиграть в войнушку в пейнтболе.

Не отметишь и кого-либо из актёров. Разве что Кёртис Морган в эмоциональном плане выше всех своих коллег, но в простом «Чёрном ястребе» быть ему в массовке.

В общем, если любите военное кино, то можете посмотреть его, но если любите качественное, не играющее на названии, кино, то пропустив «Чёрного ястреба 2: Зона высадки Ирак» Вы абсолютно ничего не потеряете (лично я его смотрел, желая повторить ощущения, полученные от ленты Ридли Скотта, отчего остался сильно разочарованным).

4 из 10
General

Format : Matroska
Format version : Version 2
File size : 1.40 GiB
Duration : 1h 43mn
Overall bit rate : 1 944 Kbps
Movie name : American.Soldiers.2005.1080p.Bluray.VC1.Remux
Encoded date : UTC 2012-11-26 13:04:56
Writing application : mkvmerge v5.8.0 ('No Sleep / Pillow') built on Sep 2 2012 15:37:04
Writing library : libebml v1.2.3 + libmatroska v1.3.0

Video
ID : 1
Format : AVC
Format/Info : Advanced Video Codec
Format profile : Main@L5.2
Format settings, CABAC : Yes
Format settings, ReFrames : 5 frames
Muxing mode : Header stripping
Codec ID : V_MPEG4/ISO/AVC
Duration : 1h 43mn
Bit rate : 1 522 Kbps
Nominal bit rate : 1 610 Kbps
Width : 720 pixels
Height : 408 pixels
Display aspect ratio : 16:9
Frame rate mode : Constant
Frame rate : 23.976 fps
Color space : YUV
Chroma subsampling : 4:2:0
Bit depth : 8 bits
Scan type : Progressive
Bits/(Pixel*Frame) : 0.216
Stream size : 1.10 GiB (78%)
Title : Черный ястреб 2: Зона высадки Ирак / American Soldier (2005) BDRip | Лицензия от TORRENT-45
Writing library : x264 core 125 r2208 d9d2288
Encoding settings : cabac=1 / ref=5 / deblock=1:0:0 / analyse=0x1:0x111 / me=esa / subme=9 / psy=1 / psy_rd=1.00:0.00 / mixed_ref=1 / me_range=32 / chroma_me=1 / trellis=1 / 8x8dct=0 / cqm=0 / deadzone=21,11 / fast_pskip=1 / chroma_qp_offset=-2 / threads=6 / lookahead_threads=1 / sliced_threads=0 / nr=0 / decimate=1 / interlaced=0 / bluray_compat=0 / constrained_intra=0 / bframes=4 / b_pyramid=2 / b_adapt=2 / b_bias=0 / direct=3 / weightb=1 / open_gop=0 / weightp=2 / keyint=250 / keyint_min=23 / scenecut=40 / intra_refresh=0 / rc_lookahead=50 / rc=abr / mbtree=1 / bitrate=1610 / ratetol=1.0 / qcomp=0.60 / qpmin=0 / qpmax=69 / qpstep=4 / ip_ratio=1.40 / aq=1:1.00
Default : Yes
Forced : No

Audio
ID : 2
Format : AC-3
Format/Info : Audio Coding 3
Mode extension : CM (complete main)
Format settings, Endianness : Big
Muxing mode : Header stripping
Codec ID : A_AC3
Duration : 1h 43mn
Bit rate mode : Constant
Bit rate : 384 Kbps
Channel(s) : 6 channels
Channel positions : Front: L C R, Side: L R, LFE
Sampling rate : 48.0 KHz
Bit depth : 16 bits
Compression mode : Lossy
Stream size : 284 MiB (20%)
Title : Профессиональный (многоголосый)[Лицензия]
Default : Yes
Forced : No

Menu
00:00:00.000 : en:00:00:00.000
00:16:59.936 : en:00:16:59.936
00:33:59.955 : en:00:33:59.955
00:50:59.932 : en:00:50:59.932
01:07:59.909 : en:01:07:59.909
01:24:59.886 : en:01:24:59.886



Скачать Черный.ястреб.2.Зона.высадки.Ирак.American.Soldier.(Сидни.Дж.Фьюри).[2005.боевик.военный.драма.исторический.HDRip-AVC].[MVO].[Лицензия].torrent без регистрации
Золото ЗОЛОТАЯ РАЗДАЧА! СКАЧАННОЕ НЕ ЗАСЧИТЫВАЕТСЯ! Золото
Дата: Зарегистрирован   [ Тип: внутренний ] Как тут cкачать?
MAGNET ссылка
MAGNET ссылка


Скачать .torrent

15 KB

Статус: проверено DHT
Скачан: торрент - 162 раз, раздача полностью - 39 раз
Размер: 1,4 GB
Оценка:  - (Голосов: 0)
Поблагодарили: 5
Поделиться ссылкой на эту раздачу с друзьями:
В контактеFacebookОдноклассникиTwitterLivejournalМой МирLiveinternet
 

 
Показать сообщения:    


Вы не можете начинать темы
Вы не можете отвечать на сообщения
Вы не можете редактировать свои сообщения
Вы не можете удалять свои сообщения
Вы не можете голосовать в опросах
Вы не можете прикреплять файлы к сообщениям
Вы можете скачивать файлы