Loading...
Error

Скачать Частная практика / Private Practice (сезон 4, серии 1-22 из 22) (Марк Тинкер) [2010 г., драма, мелодрама, комедия, WEB-DLRip] MVO (Fox Life) торрент без регистрации

 
Статистика раздачи
Размер:  8,37 GB   |    Скачан:  240 раз

Полного источника не было: 28 минут

 
Автор Сообщение

Shara

[] 

Частная практика / Private Practice
Год выпуска: 2010
Страна: США
Жанр: медицинская драма / комедия
Продолжительность: 45 минут
Перевод: профессиональный многоголосый закадровый (FoxLife)
Оригинальная дорожка: английская
Русские субтитры: нет
Субтитры: нет
Режиссёр: Марк Тинкер
В ролях: Кейт Уолш, Тим Дэли, Тэй Диггз, Пол Адельштейн, Одра МакДональд, Эми Бреннемэн, Крис Лоуэлл, КаДи Стрикланд, Шэвон Киркси, Джейн Кларк, Беллами Янг
Описание: Cпин-офф сериала "Анатомия страсти" ( Grey's anatomy ), в котором главной героиней выступит доктор Эддисон Форбс Монтгомери, переехавшая в Санта-Монику и начавшая новую жизнь. Эддисон – известный хирург. Оставив работу в Сиэттле, рухнувший брак с Дереком Шепардом и неудавшиеся отношения с Марком Слоаном, она переезжает в Лос-Анджелес, в более солнечный климат и к более счастливым возможностям. Эддисон вновь встречается с друзьями по медицинской школе, Наоми и Сэмом Беннет, присоединяясь к работе в их шикарном Oceanside Wellness Center. Наоми – акушерка и специалист по гормонам, главный владелец клиники, а Сэм – терапевт и совладелец, чьи книги-самоучители принесли ему славу «медицинского гуру обычных людей». Недавно развелись, но вынуждены сосуществовать ради дочери Майи и общей практики, однако их отношения едва ли назовешь дружескими. Доктор Купер Фридман – прекрасный педиатр, но в личной жизни терпит неудачу за неудачей, притягивая «не тот тип женщин». Свидания через Интернет заканчивались для него плачевно. Утешение и совет Купер ищет у своей подруги, психиатра Вайолет Тернер, не более удачливой в сердечных делах. Доктор Пит Уайлдер – специалист по альтернативной медицине. Привлекательный и уверенный в себе, Пит может привлечь любую женщину и уже привлек – Эддисон. Несмотря на влечение, уверенность и даже самоуверенность Пита, он все еще не может оправиться от трагической смерти его жены восемь лет назад, поскольку с тех пор у него так и не было серьезных отношений. Но вместе с Эддисон может попробовать начать жизнь сначала и он.
Доп. информация:
Над релизом работали: Taliy, Allo-4ka
Сэмпл: http://narod.ru/disk/29714577001/1.avi.html
Качество: WEB-DLRip
Формат: AVI
Видео кодек: XviD
Аудио кодек: MP3
Видео: 720x400 (1.80:1), 23.976 fps, XviD MPEG-4 ~1200 kbps avg, 0.17 bit/pixel
Аудио: rus: 48 kHz, MPEG Layer 3, 2 ch, ~192.00 kbps avg
Аудио 2: eng: 48 kHz, MPEG Layer 3, 2 ch, ~192.00 kbps avg
Релиз:
General
Complete name : ...\Private.practice.s04.rus.eng.webdl-rip\Private.practice.s04e01.rus.eng.webdl-rip.filmgate.tv.avi
Format : AVI
Format/Info : Audio Video Interleave
File size : 452 MiB
Duration : 43mn 29s
Overall bit rate : 1 454 Kbps
Writing application : VirtualDubModRus 1.5.10.2 (build 2542/release)
Writing library : VirtualDubMod build 2542/release
Video
ID : 0
Format : MPEG-4 Visual
Format profile : Advanced Simple@L5
Format settings, BVOP : 2
Format settings, QPel : No
Format settings, GMC : No warppoints
Format settings, Matrix : Default (H.263)
Codec ID : XVID
Codec ID/Hint : XviD
Duration : 43mn 29s
Bit rate : 1 056 Kbps
Width : 720 pixels
Height : 400 pixels
Display aspect ratio : 16:9
Frame rate : 23.976 fps
Color space : YUV
Chroma subsampling : 4:2:0
Bit depth : 8 bits
Scan type : Progressive
Compression mode : Lossy
Bits/(Pixel*Frame) : 0.153
Stream size : 329 MiB (73%)
Writing library : XviD 1.2.1 (UTC 2008-12-04)
Audio #1
ID : 1
Format : MPEG Audio
Format version : Version 1
Format profile : Layer 3
Mode : Joint stereo
Mode extension : MS Stereo
Codec ID : 55
Codec ID/Hint : MP3
Duration : 43mn 29s
Bit rate mode : Constant
Bit rate : 192 Kbps
Channel(s) : 2 channels
Sampling rate : 48.0 KHz
Compression mode : Lossy
Stream size : 59.7 MiB (13%)
Alignment : Aligned on interleaves
Interleave, duration : 42 ms (1.00 video frame)
Interleave, preload duration : 504 ms
Writing library : LAME3.98r
Encoding settings : -m j -V 4 -q 2 -lowpass 18.6 -b 192
Audio #2
ID : 2
Format : MPEG Audio
Format version : Version 1
Format profile : Layer 3
Mode : Joint stereo
Mode extension : MS Stereo
Codec ID : 55
Codec ID/Hint : MP3
Duration : 43mn 29s
Bit rate mode : Constant
Bit rate : 192 Kbps
Channel(s) : 2 channels
Sampling rate : 48.0 KHz
Compression mode : Lossy
Stream size : 59.7 MiB (13%)
Alignment : Aligned on interleaves
Interleave, duration : 42 ms (1.00 video frame)
Interleave, preload duration : 504 ms
Writing library : LAME3.98r
Encoding settings : -m j -V 4 -q 2 -lowpass 18.6 -b 192
1. Take Two
2. Short Cuts
3. Playing God
4. A Better Place to Be
5. In or Out
6. All in the Family
7. Did You Hear What Happened to Charlotte King?
8. What Happens Next
9. Can't Find My Way Back Home
10. Just Lose It
11. If You Don't Know Me By Now
12. Heaven Can Wait
13. Blind Love
14. Home Again
15. Two Steps Back
16. Love and Lies
17. A Step Too Far
18. The Hardest Part
19. What We Have Here...
20. Something Old, Something New
21. God Bless the Child
22. ...To Change the Things I Can







Скачать Частная.практика.Private.Practice.(сезон.4.серии.1-22.из.22).(Марк.Тинкер).[2010.г.драма.мелодрама.комедия.WEB-DLRip].MVO.(Fox.Life).torrent без регистрации
Золото ЗОЛОТАЯ РАЗДАЧА! СКАЧАННОЕ НЕ ЗАСЧИТЫВАЕТСЯ! Золото
Дата: Зарегистрирован   [ Тип: внутренний ] Как тут cкачать?
MAGNET ссылка
MAGNET ссылка


Скачать .torrent

23 KB

Статус: проверено DHT
Скачан: торрент - 240 раз, раздача полностью - 96 раз
Размер: 8,37 GB
Оценка:  5 (Голосов: 1)
Поблагодарили: 2
Поделиться ссылкой на эту раздачу с друзьями:
В контактеFacebookОдноклассникиTwitterLivejournalМой МирLiveinternet
 

 
Показать сообщения:    


Вы не можете начинать темы
Вы не можете отвечать на сообщения
Вы не можете редактировать свои сообщения
Вы не можете удалять свои сообщения
Вы не можете голосовать в опросах
Вы не можете прикреплять файлы к сообщениям
Вы можете скачивать файлы