Loading...
Error

Скачать Частная практика / Private Practice (сезон: 6, серии: 1-6 из ?) (Марк Тинкер) [2012 г., драма, мелодрама, комедия, WEB-DLRip] MVO (To4ka & HamsterStudio & SafariSound) торрент без регистрации

 
Статистика раздачи
Размер:  2,64 GB   |    Скачан:  227 раз
Сидов:  1  [  0 KB/s  ]  
 
Автор Сообщение

Shara

[] 



Частная практика / Private Practice


«A new start on life.»
Год выпуска: 2012
Страна: США | ABC
Жанр: драма, мелодрама, комедия
Продолжительность: ~ 42 минуты
Перевод: Любительский (многоголосый, закадровый) - To4ka & HamsterStudio & SafariSound
Субтитры: Нет
Режиссёр: Марк Тинкер
В ролях: Кейт Уолш, Тим Дейли, Одра МакДональд, Пол Эдельштайн, КаДи Стрикленд, Крис Лоуэлл, Тэй Диггз, Эми Бреннеман, Дэвид Сатклифф, Брайан Бенбен, Катерина Скорсоне и др.
Описание: Спин-офф сериала "Анатомия страсти" ( Grey's anatomy ), в котором главной героиней выступит доктор Эддисон Форбс Монтгомери, переехавшая в Санта-Монику и начавшая новую жизнь. Эддисон – известный хирург. Оставив работу в Сиэттле, рухнувший брак с Дереком Шепардом и неудавшиеся отношения с Марком Слоаном, она переезжает в Лос-Анджелес, в более солнечный климат и к более счастливым возможностям. Эддисон вновь встречается с друзьями по медицинской школе, Наоми и Сэмом Беннет, присоединяясь к работе в их шикарном Oceanside Wellness Center. Наоми – акушерка и специалист по гормонам, главный владелец клиники, а Сэм – терапевт и совладелец, чьи книги-самоучители принесли ему славу «медицинского гуру обычных людей». Недавно развелись, но вынуждены сосуществовать ради дочери Майи и общей практики, однако их отношения едва ли назовешь дружескими. Доктор Купер Фридман – прекрасный педиатр, но в личной жизни терпит неудачу за неудачей, притягивая «не тот тип женщин». Свидания через Интернет заканчивались для него плачевно. Утешение и совет Купер ищет у своей подруги, психиатра Вайолет Тернер, не более удачливой в сердечных делах. Доктор Пит Уайлдер – специалист по альтернативной медицине. Привлекательный и уверенный в себе, Пит может привлечь любую женщину и уже привлек – Эддисон. Несмотря на влечение, уверенность и даже самоуверенность Пита, он все еще не может оправиться от трагической смерти его жены восемь лет назад, поскольку с тех пор у него так и не было серьезных отношений. Но вместе с Эддисон может попробовать начать жизнь сначала и он.
Качество: WEB-DLRip
Формат: AVI
Видео кодек: XviD
Аудио кодек: MP3
Видео: 720x400 (16:9), 23.976 fps, ~1200 kbps, ~0.170 bit/pixel
Аудио Rus: 48 kHz, 2 ch, ~128 kbps |To4ka & HamsterStudio & SafariSound|
Аудио Eng: 48 kHz, 2 ch, ~128 kbps |Original|
Релиз: по заказу SeasonVar
Перевод:
Роли озвучивали: Александр Нелюбин, Ирина Грачева, Марина Комчарукова, Ева, Андрей Хомяков, Вячеслав Айсберг, Калинда и micola777
Монтаж и сведение звука: Kyliknikylik, Aredhel
/ Сэмпл / ImDB / Кинопоиск
Aftershock
Mourning Sickness
Good Grief
You Don't Know What You've Got Til It's Gone
The Next Episode
[b]Общее
Полное имя : G:\Private.Practice.s06.WEB-DLRip.Rus.Eng.[To4ka.TV]\Private.Practice.s06e01.WEB-DLRip.Rus.Eng.[To4ka.TV].avi
Формат : AVI
Формат/Информация : Audio Video Interleave
Размер файла : 451 Мбайт
Продолжительность : 43 м.
Общий поток : 1453 Кбит/сек
Программа кодирования : VirtualDubModRus 1.5.10.2 (build 2542/release)
Библиотека кодирования : VirtualDubMod build 2542/release
Видео
Идентификатор : 0
Формат : MPEG-4 Visual
Профиль формата : Advanced Simple@L5
Параметр BVOP формата : 1
Параметр QPel формата : Нет
Параметр GMC формата : Без точки перехода
Параметр матрицы формата : Выборочная
Идентификатор кодека : XVID
Идентификатор кодека/Подсказка : XviD
Продолжительность : 43 м.
Битрейт : 1183 Кбит/сек
Ширина : 720 пикселей
Высота : 400 пикселей
Соотношение сторон : 16:9
Частота кадров : 23,976 кадра/сек
Цветовое пространство : YUV
Субдискретизация насыщенности : 4:2:0
Битовая глубина : 8 бит
Тип развёртки : Прогрессивная
Метод сжатия : С потерями
Бит/(Пиксели*Кадры) : 0.171
Размер потока : 367 Мбайт (81%)
Библиотека кодирования : XviD 73
Аудио #1
Идентификатор : 1
Формат : MPEG Audio
Версия формата : Version 1
Профиль формата : Layer 3
Режим : Joint stereo
Расширение режима : MS Stereo
Идентификатор кодека : 55
Идентификатор кодека/Подсказка : MP3
Продолжительность : 43 м.
Вид битрейта : Постоянный
Битрейт : 128 Кбит/сек
Каналы : 2 канала
Частота : 48,0 КГц
Метод сжатия : С потерями
Размер потока : 39,7 Мбайт (9%)
Выравнивание : Соединение по промежуткам
Продолжительность промежутка : 42 мс. (1,00 видеокадр)
Время предзагрузки промежутка : 504 мс.
Аудио #2
Идентификатор : 2
Формат : MPEG Audio
Версия формата : Version 1
Профиль формата : Layer 3
Режим : Joint stereo
Расширение режима : MS Stereo
Идентификатор кодека : 55
Идентификатор кодека/Подсказка : MP3
Продолжительность : 43 м.
Вид битрейта : Постоянный
Битрейт : 128 Кбит/сек
Каналы : 2 канала
Частота : 48,0 КГц
Метод сжатия : С потерями
Размер потока : 39,7 Мбайт (9%)
Выравнивание : Разделение по промежуткам
Продолжительность промежутка : 42 мс. (1,00 видеокадр)
Время предзагрузки промежутка : 500 мс.
Внимание! Раздача ведётся путём добавления новых серий; при каждом добавлении создётся новый торрент. Чтобы начать докачку новой серии, пользователям необходимо сделать следующее:Остановить скачивание.
Удалить старый торрент у себя из клиента (старые серии удалять не надо).
Скачать новый торрент и запустить его у себя в клиенте вместо старого, при этом указать клиенту путь в старую папку куда и должно происходить скачивание новых серий.Ваш клиент при этом должен произвести хеширование (проверку) старой папки (если не производит сам - помогите ему сделать это), и будет докачивать только те серии которых у вас ещё нет. Старые серии при этом не удаляются, а продолжают раздаваться!
Eсли вы уже удалили старые серии, то предотвратить повторную закачку старых серий можно, отжав галочку в соответсвующих местах при запуске нового торрента. По возможности, желательно не удалять старые серии как можно дольше чтобы релизёр не столько продолжал раздавать старые серии, а смог сконцентрироваться на новых.
[align=center]



Скачать Частная.практика.Private.Practice.(сезон.6.серии.1-6.из.?).(Марк.Тинкер).[2012.г.драма.мелодрама.комедия.WEB-DLRip].MVO.(To4ka.&.HamsterStudio.&.SafariSound).torrent без регистрации
Золото ЗОЛОТАЯ РАЗДАЧА! СКАЧАННОЕ НЕ ЗАСЧИТЫВАЕТСЯ! Золото
Дата: Зарегистрирован   [ Тип: внутренний ] Как тут cкачать?
MAGNET ссылка
MAGNET ссылка


Скачать .torrent

14 KB

Статус: проверено DHT
Скачан: торрент - 227 раз, раздача полностью - 60 раз
Размер: 2,64 GB
Оценка:  5 (Голосов: 1)
Поблагодарили: 2
Поделиться ссылкой на эту раздачу с друзьями:
В контактеFacebookОдноклассникиTwitterLivejournalМой МирLiveinternet
 

 

Kriss130013

[] 

Уже 5 серий,а ты молчишь. ac
 

Shara

[] 

Сорри, обновил раздачу
 

Kriss130013

[] 

Спасибо. ab
 
Показать сообщения:    


Вы не можете начинать темы
Вы не можете отвечать на сообщения
Вы не можете редактировать свои сообщения
Вы не можете удалять свои сообщения
Вы не можете голосовать в опросах
Вы не можете прикреплять файлы к сообщениям
Вы можете скачивать файлы