Loading...
Error

Скачать Американская история ужасов / American Horror Story (сезон 02) (Брэдли Букер и др.) [2012, ужасы, триллер, драма, WEB-DL] [720p] [DVO (Кубик в Кубе)]+[MVO (LostFilm)] торрент без регистрации

 
Статистика раздачи
Размер:  20,65 GB   |    Скачан:  2543 раза
Сидов:  1  [  0 KB/s  ]  
 
Автор Сообщение

МихаНЕзатор

[] 



Американские ужасы / American horror story

Год выпуска:[/color] 2012
Страна: США | FX
Жанр: ужасы, триллер, драма
Режиссёры: Брэдли Букер, Майкл Аппендаль, Альфонсо Гомез-Рейон, Дэвид Семел
Продолжительность: ~ 44 минуты
Перевод: Профессиональный (многоголосый, закадровый) - LostFilm
Профессиональный (двухголосый, закадровый) - Кубик в кубе

В ролях: Закари Куинто, Джозеф Файнс, Сара Полсон, Эван Питерс, Лили Рейб, Лиззи Брошерэ , Джеймс Кромуэлл, Джессика Ланг и др.

Описание: Действие второго сезона развернется в психбольнице для душевнобольных преступников. Добро пожаловать в Брайерклифф-Мэнор, печально известная психиатрическая больница, ставшая убежищем для серийного убийцы Кровавое Лицо. Скрываясь в тени этого «святилища исцеления», выявляются страшные пороки, которые стирают границы между действительностью и безумием.

Качество: WEB-DL 720p
Формат: MKV
Видео кодек: H.264
Аудио кодек: AC3
Видео: 1280x718 (16:9), 23.976 fps, ~4000 kbps, ~0.180 bit/pixel
Аудио Rus: 48 kHz, 6 ch, ~384 kbps |LostFilm|
Аудио Rus: 48 kHz, 6 ch, ~384 kbps |Кубик в кубе|
Аудио Eng: 48 kHz, 6 ch, ~384 kbps |Original|
Субтитры: Русские (Amberteam), Английские

by markinscor

05.02.2013 г. торент обновлён, добавлена 12 серия!

Добро пожаловать в Брайерклифф / Welcome to Briarcliff
Дайте сладкого, или напугаем / Tricks and Treats
И разверзлись хляби небесные / Nor'easter
Меня зовут Анна Франк. Часть 1 / I Am Anne Frank: Part 1
Меня зовут Анна Франк. Часть 2 / I Am Anne Frank: Part 2
Как становятся чудовищами / The Origins of Monstrosity
Тёмный кузен / Dark Cousin
Нечистая ночь / Unholy Night
Вешалка / The Coat Hanger
Игра в имена / The Name Game
Пролитое молоко / Spilt Milk
Континуум / Continuum
Общее
Формат : Matroska
Версия формата : Version 2
Размер файла : 1,62 Гбайт
Продолжительность : 46 м.
Общий поток : 5017 Кбит/сек
Дата кодирования : UTC 2012-11-19 11:06:49
Программа кодирования : mkvmerge v5.8.0 ('No Sleep / Pillow') built on Sep 2 2012 15:37:04
Библиотека кодирования : libebml v1.2.3 + libmatroska v1.3.0

Видео
Идентификатор : 1
Формат : AVC
Формат/Информация : Advanced Video Codec
Профиль формата : High@L3.1
Параметр CABAC формата : Нет
Параметр ReFrames формата : 2 кадра
Идентификатор кодека : V_MPEG4/ISO/AVC
Продолжительность : 46 м.
Битрейт : 3765 Кбит/сек
Ширина : 1280 пикселей
Высота : 718 пикселей
Соотношение сторон : 16:9
Режим частоты кадров : Постоянный
Частота кадров : 23,976 кадра/сек
Цветовое пространство : YUV
Субдискретизация насыщенности : 4:2:0
Битовая глубина : 8 бит
Тип развёртки : Прогрессивная
Бит/(Пиксели*Кадры) : 0.171
Размер потока : 1,21 Гбайт (75%)
Язык : English
Default : Да
Forced : Нет
Основные цвета : BT.709
Характеристики трансфера : BT.709
Коэффициенты матрицы : BT.709

Аудио #1
Идентификатор : 2
Формат : AC-3
Формат/Информация : Audio Coding 3
Расширение режима : CM (complete main)
Параметр Endianness формата : Big
Идентификатор кодека : A_AC3
Продолжительность : 46 м.
Вид битрейта : Постоянный
Битрейт : 384 Кбит/сек
Каналы : 6 каналов
Расположение каналов : Front: L C R, Side: L R, LFE
Частота : 48,0 КГц
Битовая глубина : 16 бит
Метод сжатия : С потерями
Размер потока : 127 Мбайт (8%)
Заголовок : LostFilm
Язык : Russian
Default : Да
Forced : Нет

Аудио #2
Идентификатор : 3
Формат : AC-3
Формат/Информация : Audio Coding 3
Расширение режима : CM (complete main)
Параметр Endianness формата : Big
Идентификатор кодека : A_AC3
Продолжительность : 46 м.
Вид битрейта : Постоянный
Битрейт : 384 Кбит/сек
Каналы : 6 каналов
Расположение каналов : Front: L C R, Side: L R, LFE
Частота : 48,0 КГц
Битовая глубина : 16 бит
Метод сжатия : С потерями
Размер потока : 127 Мбайт (8%)
Заголовок : Кубик в Кубе
Язык : Russian
Default : Нет
Forced : Нет

Аудио #3
Идентификатор : 4
Формат : AC-3
Формат/Информация : Audio Coding 3
Расширение режима : CM (complete main)
Параметр Endianness формата : Big
Идентификатор кодека : A_AC3
Продолжительность : 46 м.
Вид битрейта : Постоянный
Битрейт : 384 Кбит/сек
Каналы : 6 каналов
Расположение каналов : Front: L C R, Side: L R, LFE
Частота : 48,0 КГц
Битовая глубина : 16 бит
Метод сжатия : С потерями
Размер потока : 127 Мбайт (8%)
Язык : English
Default : Нет
Forced : Нет

Текст #1
Идентификатор : 5
Формат : UTF-8
Идентификатор кодека : S_TEXT/UTF8
Идентификатор кодека/Информация : UTF-8 Plain Text
Язык : Russian
Default : Нет
Forced : Нет

Текст #2
Идентификатор : 6
Формат : UTF-8
Идентификатор кодека : S_TEXT/UTF8
Идентификатор кодека/Информация : UTF-8 Plain Text
Язык : English
Default : Нет
Forced : Нет

Внимание! Раздача ведётся путём добавления новых серий; при каждом добавлении создётся новый торрент. Чтобы начать докачку новой серии, пользователям необходимо сделать следующее:
(1) остановить скачивание,
(2) удалить старый торрент у себя из клиента (старые серии удалять не надо),
(3) скачать новый торрент и запустить его у себя в клиенте вместо старого, при этом указать клиенту путь в старую папку куда и должно происходить скачивание новых серий.
Ваш клиент при этом должен произвести хеширование (проверку) старой папки (если не производит сам - помогите ему сделать это), и будет докачивать только те серии которых у вас ещё нет. Старые серии при этом не удаляются, а продолжают раздаваться!
Eсли вы уже удалили старые серии, то предотвратить повторную закачку старых серий можно, отжав галочку в соответсвующих местах при запуске нового торрента. По возможности, желательно не удалять старые серии как можно дольше чтобы релизёр не столько продолжал раздавать старые серии, а смог сконцентрироваться на новых.



Скачать Американская.история.ужасов.American.Horror.Story.(сезон.02).(Брэдли.Букер.и.др.).[2012.ужасы.триллер.драма.WEB-DL].[720p].[DVO.(Кубик.в.Кубе)]+[MVO.(LostFilm)].torrent без регистрации
Золото ЗОЛОТАЯ РАЗДАЧА! СКАЧАННОЕ НЕ ЗАСЧИТЫВАЕТСЯ! Золото
Дата: Зарегистрирован   [ Тип: внутренний ] Как тут cкачать?
MAGNET ссылка
MAGNET ссылка


Скачать .torrent

105 KB

Статус: проверено DHT
Скачан: торрент - 2543 раз, раздача полностью - 252 раз
Размер: 20,65 GB
Оценка:  5 (Голосов: 5)
Поблагодарили: 7
Поделиться ссылкой на эту раздачу с друзьями:
В контактеFacebookОдноклассникиTwitterLivejournalМой МирLiveinternet
 

 
Показать сообщения:    


Вы не можете начинать темы
Вы не можете отвечать на сообщения
Вы не можете редактировать свои сообщения
Вы не можете удалять свои сообщения
Вы не можете голосовать в опросах
Вы не можете прикреплять файлы к сообщениям
Вы можете скачивать файлы