Loading...
Error

Скачать Однажды в сказке / Once Upon a Time (сезон 02) (Дин Уайт, Дэвид Соломон, Милан Чейлов) [2012, фэнтези, драма, приключения, WEB-DLRip] [MVO (To4ka)] торрент без регистрации

 
Статистика раздачи
Размер:  10,12 GB   |    Скачан:  457 раз
Сидов:  1  [  0 KB/s  ]  
 
Автор Сообщение

МихаНЕзатор

[] 

Название: Однажды в сказке
Оригинальное название: Once Upon a Time
Год выпуска: 2012
Страна: США
Жанр: фэнтези, драма, приключения
Перевод: Любительский (многоголосый, закадровый) - To4ka
Субтитры: Русские (To4kaTranslate)
Режиссер: Дин Уайт, Дэвид Соломон, Милан Чейлов

Продолжительность: ~ 08 х 00:42:00
+ серия 00. Серия представляет собой краткий пересказ 1 сезона.
Сделано очень стильно. Прилагаются русские субтитры на всю серию.


В ролях: Дженнифер Моррисон, Джиннифер Гудвин, Лана Паррийа, Джошуа Даллас, Джаред Гилмор, Роберт Карлайл, Рафаэль Сбардж, Меган Ори, Эйон Бэйли, Беверли Эллиотт и др.

Описание: Сюжет фэнтези разворачивается в двух мирах - современном и сказочном. Беззаботная жизнь 28-летней Эммы Свон меняется, когда ее 10-летний сын Генри, от которого она отказалась много лет назад, находит Эмму и объявляет, что она является дочерью Прекрасного Принца и Белоснежки. Само собой разумеется, у мальчишки нет никаких сомнений, что параллельно нашему существует альтернативный сказочный мир город Сторибрук, в котором в итоге оказывается Эмма. Постепенно героиня привязывается к необычному мальчику и странному городу, жители которого «забыли», кем они были в прошлом. А все из-за проклятия Злой Королевы (по совместительству приемной матери Генри), с помощью которого колдунья остановила время в сказочной стране. Однако стоит протянуть руку - и сказка оживет. Эпическая битва за будущее двух миров начинается, но, чтобы одержать победу, Эмме придется принять свою судьбу...

Релиз от:

Перевод: Релиз-группа "To4kaTranslate"
Озвучка: Александр Нелюбин, Андрей Хомяков, Ирина Грачева, Марина Комчарукова и Анастасия Снегирева
Рип видео: LegendKiev

Качество: WEB-DLRip
Формат: AVI
Видео кодек: XviD
Аудио кодек: MP3
Видео: 720x400 (16/9), 23.976 fps, ~1200 Kbps ~0.180 bit/pixel
Аудио rus: 48 kHz, 2 ch, ~128 kbps
Аудио eng: 48 kHz, 2 ch, ~128 kbps

14.05.2013 г. торент обновлён, добавлена 22 серия, сезон полностью!

00. Magic is Coming Special
01. Сломленный / Broken
02. Мы оба / We Are Both
03. Владычица Озера / Lady of the Lake
04. Крокодил / The Crocodile
05. Доктор / The Doctor
06. Таллахасси / Tallahassee
07. Дитя Луны / Child of the Moon
08. Into the Deep
09. Queen of Hearts
10. The Cricket Game
11. Аутсайдер / The Outsider
12. От имени брата / In the Name of the Brother
13. Tiny
14. Manhattan
15. The Queen Is Dead / Королева мертва
16. The Miller's Daughter
17. "Добро пожаловать в Сторибрук"
18. Selfless, Brave and True
19. Lacey
20. The Evil Queen
21. Second Star to the Right
22. And Straight on Till Morning
Общее
Формат : AVI
Формат/Информация : Audio Video Interleave
Размер файла : 450 Мбайт
Продолжительность : 43 м.
Общий поток : 1458 Кбит/сек
Программа кодирования : VirtualDubModRus 1.5.10.2 (build 2542/release)
Библиотека кодирования : VirtualDubMod build 2542/release

Видео
Идентификатор : 0
Формат : MPEG-4 Visual
Профиль формата : Advanced Simple@L5
Параметр BVOP формата : 1
Параметр QPel формата : Нет
Параметр GMC формата : Без точки перехода
Параметр матрицы формата : Выборочная
Идентификатор кодека : XVID
Идентификатор кодека/Подсказка : XviD
Продолжительность : 43 м.
Битрейт : 1188 Кбит/сек
Ширина : 720 пикселей
Высота : 400 пикселей
Соотношение сторон : 16:9
Частота кадров : 23,976 кадра/сек
Цветовое пространство : YUV
Субдискретизация насыщенности : 4:2:0
Битовая глубина : 8 бит
Тип развёртки : Прогрессивная
Метод сжатия : С потерями
Бит/(Пиксели*Кадры) : 0.172
Размер потока : 367 Мбайт (81%)
Библиотека кодирования : XviD 73

Аудио #1
Идентификатор : 1
Формат : MPEG Audio
Версия формата : Version 1
Профиль формата : Layer 3
Режим : Joint stereo
Расширение режима : MS Stereo
Идентификатор кодека : 55
Идентификатор кодека/Подсказка : MP3
Продолжительность : 43 м.
Вид битрейта : Постоянный
Битрейт : 128 Кбит/сек
Каналы : 2 канала
Частота : 48,0 КГц
Метод сжатия : С потерями
Размер потока : 39,5 Мбайт (9%)
Выравнивание : Соединение по промежуткам
Продолжительность промежутка : 42 мс. (1,00 видеокадр)
Время предзагрузки промежутка : 504 мс.

Аудио #2
Идентификатор : 2
Формат : MPEG Audio
Версия формата : Version 1
Профиль формата : Layer 3
Режим : Joint stereo
Расширение режима : MS Stereo
Идентификатор кодека : 55
Идентификатор кодека/Подсказка : MP3
Продолжительность : 43 м.
Вид битрейта : Постоянный
Битрейт : 128 Кбит/сек
Каналы : 2 канала
Частота : 48,0 КГц
Метод сжатия : С потерями
Размер потока : 39,5 Мбайт (9%)
Выравнивание : Соединение по промежуткам
Продолжительность промежутка : 42 мс. (1,00 видеокадр)
Время предзагрузки промежутка : 504 мс.





Скачать Однажды.в.сказке.Once.Upon.a.Time.(сезон.02).(Дин.Уайт.Дэвид.Соломон.Милан.Чейлов).[2012.фэнтези.драма.приключения.WEB-DLRip].[MVO.(To4ka)].torrent без регистрации
Золото ЗОЛОТАЯ РАЗДАЧА! СКАЧАННОЕ НЕ ЗАСЧИТЫВАЕТСЯ! Золото
Дата: Зарегистрирован   [ Тип: внутренний ] Как тут cкачать?
MAGNET ссылка
MAGNET ссылка


Скачать .torrent

56 KB

Статус: проверено DHT
Скачан: торрент - 457 раз, раздача полностью - 15 раз
Размер: 10,12 GB
Оценка:  5 (Голосов: 1)
Поблагодарили: 8
Поделиться ссылкой на эту раздачу с друзьями:
В контактеFacebookОдноклассникиTwitterLivejournalМой МирLiveinternet
 

 

МихаНЕзатор

[] 

Раздача обновлена.
 
Показать сообщения:    


Вы не можете начинать темы
Вы не можете отвечать на сообщения
Вы не можете редактировать свои сообщения
Вы не можете удалять свои сообщения
Вы не можете голосовать в опросах
Вы не можете прикреплять файлы к сообщениям
Вы можете скачивать файлы