Loading...
Error

Скачать Гранд Отель / Gran Hotel (сезон 02) (Карлос Седес, Сильвия Квир, Хорхе Санчес-Кабесудо) [2012, драма, HDTVRip] [MVO (DreamRecords)] торрент без регистрации

 
Статистика раздачи
Размер:  6,55 GB   |    Скачан:  195 раз

Полного источника не было: 25 минут

 
Автор Сообщение

МихаНЕзатор

[] 

Название: Гранд Отель
Оригинальное название: Gran Hotel
Год выпуска: 2012
Страна: Испания
Жанр: драма
Продолжительность: ~ 01:15:00
Перевод: Профессиональный (многоголосый закадровый) - DreamRecords
Субтитры: Нет
Режиссер: Карлос Седес, Сильвия Квир, Хорхе Санчес-Кабесудо

В ролях: Йон Гонсалес (Хулио Ольмедо), Амайя Саламанка (Алисия Аларкон), Адриана Осорес (донья Тереса), Педро Алонсо (Диего), Элой Асорин (Хавьер Аларкон), Феле Мартинес (Альфредо Вергара), Иван Моралес (Себастьян)

Описание: Действие происходит в 1905 году. Молодой человек Хулио приезжает в идиллическое место Гранд отель, где он намерен выяснить причины исчезновение своей сестры. Но на пути его расследования встретится Алисия Аларкон, член семьи владельца отеля, и которая станет единственным человеком, готовым помочь ему раскрыть правду. Между ними начнется невозможная история любви. Им мешает то обстоятельство, что Алисия помолвлена с Диего, амбициозным юношей, который готов на всё, чтобы стать директором Гранд Отеля

Релиз от:

Качество: HDTVRip
Формат: AVI
Видео кодек: XviD
Аудио кодек: MP3
Видео: 720x400, 1 245 Kbps, 25 fps, 0.173 bit/pixel
Аудио rus: MP3, 48 kHz, 2 ch, 192 kbps

26.02.2013 г. торент обновлён, добавлена 8 серияю Сезон полностью!

01. Свет и тени / Luces y sombras
02. Плач в ночи / Un llanto en la noche
03. Секрет / El secreto
04. Из прошлого / Retorno al pasado
05. Сесилия / Cecilia
06. Годовщина / El aniversario
07. Крещение / El bautizo

Перевод: Дарья Селиверстова
Озвучка: Михаил Суслов, Владимир Чистохин, Светлана Чистохина, Мила Мирелли
Работа со звуком: Алексей Фокин
Format : AVI
Format/Info : Audio Video Interleave
File size : 811 MiB
Duration : 1h 18mn
Overall bit rate : 1 447 Kbps
Writing library : VirtualDub build 32706/release

Video
ID : 0
Format : MPEG-4 Visual
Format profile : Advanced Simple@L5
Format settings, BVOP : 1
Format settings, QPel : No
Format settings, GMC : No warppoints
Format settings, Matrix : Default (MPEG)
Codec ID : XVID
Codec ID/Hint : XviD
Duration : 1h 18mn
Bit rate : 1 245 Kbps
Width : 720 pixels
Height : 400 pixels
Display aspect ratio : 16:9
Frame rate : 25.000 fps
Color space : YUV
Chroma subsampling : 4:2:0
Bit depth : 8 bits
Scan type : Progressive
Compression mode : Lossy
Bits/(Pixel*Frame) : 0.173
Stream size : 698 MiB (86id=863 alt=':Wacko:'
Writing library : XviD 64

Audio
ID : 1
Format : MPEG Audio
Format version : Version 1
Format profile : Layer 3
Mode : Joint stereo
Codec ID : 55
Codec ID/Hint : MP3
Duration : 1h 18mn
Bit rate mode : Constant
Bit rate : 192 Kbps
Channel(s) : 2 channels
Sampling rate : 48.0 KHz
Compression mode : Lossy
Stream size : 108 MiB (13id=863 alt=':Wacko:'
Alignment : Split accross interleaves
Interleave, duration : 40 ms (1.00 video frame)
Interleave, preload duration : 500 ms



Скачать Гранд.Отель.Gran.Hotel.(сезон.02).(Карлос.Седес.Сильвия.Квир.Хорхе.Санчес-Кабесудо).[2012.драма.HDTVRip].[MVO.(DreamRecords)].torrent без регистрации
Золото ЗОЛОТАЯ РАЗДАЧА! СКАЧАННОЕ НЕ ЗАСЧИТЫВАЕТСЯ! Золото
Дата: Зарегистрирован   [ Тип: внутренний ] Как тут cкачать?
MAGNET ссылка
MAGNET ссылка


Скачать .torrent

18 KB

Статус: проверено DHT
Скачан: торрент - 195 раз, раздача полностью - 323 раз
Размер: 6,55 GB
Оценка:  5 (Голосов: 1)
Поблагодарили: 2
Поделиться ссылкой на эту раздачу с друзьями:
В контактеFacebookОдноклассникиTwitterLivejournalМой МирLiveinternet
 

 

raksa7

[] 

Продолжение скоро?
 
Показать сообщения:    


Вы не можете начинать темы
Вы не можете отвечать на сообщения
Вы не можете редактировать свои сообщения
Вы не можете удалять свои сообщения
Вы не можете голосовать в опросах
Вы не можете прикреплять файлы к сообщениям
Вы можете скачивать файлы