Loading...
Error

Скачать Особо тяжкие преступления / Major Crimes (сезон 01) (Стэйси К. Блэк и др.) [2012, детектив, HDTVRip] [DVO (DreamRecords)] торрент без регистрации

 
Статистика раздачи
Размер:  4,45 GB   |    Скачан:  163 раза
Сидов:  1  [  0 KB/s  ]  
 
Автор Сообщение

МихаНЕзатор

[] 

Название: Особо тяжкие преступления
Оригинальное название: Major Crimes
Год выпуска: 2012
Страна: США
Жанр: детектив
Продолжительность: 8 х ~ 00:44:00
Перевод: Любительский двухголосый закадровый - DreamRecords
Субтитры: отсутствуют
Режиссер: Стэйси К. Блэк, Арвин Браун, Шилин Чокси

В ролях: Мэри МакДоннелл, Дж. У. Бейли, Энтони Джон Дэнисон, Майкл Пол Чан, Рэймонд Крус,Филлип П. Кин, Кирран Джованни, Грэхэм Патрик Мартин, Джонатан Дель Арко, Рэнсфорд Доэрти

Описание: Продолжение сериала Ищейка. После увольнения Бренды Ли Джонсон руководство Отделом Ососбо Опасных преступлений полиции Лос-Анджелеса берет в свои руки капитан Рэйдор. Однако ей предстоит работать в команде, котроая заранее испытывает к ней антипатию, ведь антипатию к ней всегда испытывала шеф Джонсон.

Дополнительно: Данный телесериал является спин-оффом сериала «Ищейка» (The Closer), на этот раз команду возглавляет персонаж Шэрон Рейдор.

Перевод: HighFlyer, ono66, wdata
Озвучка: Christh & eske
Работа со звуком: LeX
Рип видео: LeX



Качество: HDTVRip
Формат: AVI
Видео кодек: XviD
Аудио кодек: MP3
Видео: 720x400, 1 295 Kbps, 23.976 fps, 0.188 bit/pixel
Аудио rus: MP3, 48 kHz, 2 ch, 224 kbps

АНОНСЫ ПОПУЛЯРНЫХ РАЗДАЧ


Торрент обновлён, добавлена 10-я серия!

01. Перезарядка / Reload
02. До и после / Before And After
03. Медицинские показания / Medical Causes
04. Экстази и агония / The Ecstasy And The Agony
05. Гражданский арест / Citizen Arrest
06. Неприкосновенность / Out of Bounds
07. Позорная игра / The Shame Game
08. Освобожден с подозрением / Dismissed with Prejudice
09. Обманом добра не нажить / Cheaters Never Prosper
10. С дальним прицелом / Long Shot
Format : AVI
Format/Info : Audio Video Interleave
File size : 467 MiB
Duration : 42mn 47s
Overall bit rate : 1 527 Kbps
Writing application : VirtualDubModRus 1.5.10.2 (build 2542/release)
Writing library : VirtualDubMod build 2542/release

Video
ID : 0
Format : MPEG-4 Visual
Format profile : Advanced Simple@L5
Format settings, BVOP : 1
Format settings, QPel : No
Format settings, GMC : No warppoints
Format settings, Matrix : Default (MPEG)
Codec ID : XVID
Codec ID/Hint : XviD
Duration : 42mn 47s
Bit rate : 1 294 Kbps
Width : 720 pixels
Height : 400 pixels
Display aspect ratio : 16:9
Frame rate : 23.976 fps
Color space : YUV
Chroma subsampling : 4:2:0
Bit depth : 8 bits
Scan type : Progressive
Compression mode : Lossy
Bits/(Pixel*Frame) : 0.187
Stream size : 396 MiB (85%)
Writing library : XviD 64

Audio
ID : 1
Format : MPEG Audio
Format version : Version 1
Format profile : Layer 3
Mode : Joint stereo
Codec ID : 55
Codec ID/Hint : MP3
Duration : 42mn 47s
Bit rate mode : Constant
Bit rate : 224 Kbps
Channel(s) : 2 channels
Sampling rate : 48.0 KHz
Compression mode : Lossy
Stream size : 68.6 MiB (15%)
Alignment : Aligned on interleaves
Interleave, duration : 42 ms (1.00 video frame)
Interleave, preload duration : 504 ms



Скачать Особо.тяжкие.преступления.Major.Crimes.(сезон.01).(Стэйси.К.Блэк.и.др.).[2012.детектив.HDTVRip].[DVO.(DreamRecords)].torrent без регистрации
Золото ЗОЛОТАЯ РАЗДАЧА! СКАЧАННОЕ НЕ ЗАСЧИТЫВАЕТСЯ! Золото
Дата: Зарегистрирован   [ Тип: внутренний ] Как тут cкачать?
MAGNET ссылка
MAGNET ссылка


Скачать .torrent

13 KB

Статус: проверено DHT
Скачан: торрент - 163 раз, раздача полностью - 1 раз
Размер: 4,45 GB
Оценка:  - (Голосов: 0)
Поблагодарили: 3
Поделиться ссылкой на эту раздачу с друзьями:
В контактеFacebookОдноклассникиTwitterLivejournalМой МирLiveinternet
 

 
Показать сообщения:    


Вы не можете начинать темы
Вы не можете отвечать на сообщения
Вы не можете редактировать свои сообщения
Вы не можете удалять свои сообщения
Вы не можете голосовать в опросах
Вы не можете прикреплять файлы к сообщениям
Вы можете скачивать файлы