Loading...
Error

Скачать Мальчишки с улицы Пал / A P‘l-utcai fiЄk (Золтан Фабри) [1969, драма, DVDRip] [Dub] торрент без регистрации

 
Статистика раздачи
Размер:  1,37 GB   |    Скачан:  118 раз
Сидов:  1  [  0 KB/s  ]  
 
Автор Сообщение

Marsianka

[] 



Информация о фильме
Название: Мальчишки с улицы Пал
Оригинальное название: A P‘l-utcai fiЄk
Год выхода: 1969
Жанр: драма
Режиссер: Золтан Фабри
В ролях: Мари Тёрёчик, Ласло Козак, Энтони Кемп, Гари О`Брайэн, Шандор Печи, Уильям Берлей, Джон Моулдер-Браун, Роберт Эффорд, Марк Коллеано, Пол Бартлетт

О фильме:
"Красные рубашки" хотят отвоевать игровую площадку у "Мальчишек с улицы Пал". Под предводительством генерала Бока при помощи песочных бомб и смекалки мальчишки защищают свою территорию от врагов. Борьба двух групп заканчивается плачевно.
Фильм классика венгерского кинематографа, снятый по мотивам романа Ференца Молнара "Мальчики с улицы Пал" (по последним социологическим исследованиям - самая популярная венгерская книга всех времен).



Страна: США, Венгрия
Студия: Groskopf, MAFILM StЄdiЈ 1
Продолжительность: 01:43:08
Перевод: Дубляж
General
Complete name : C:Malchishki.s.ulitsi.Pal.1969.XviD.DVDRip.avi
Format : AVI
Format/Info : Audio Video Interleave
File size : 1.37 GiB
Duration : 1h 43mn 08s
Overall bit rate : 1 907 Kbps
Writing application : VirtualDubMod 1.5.4.1 (build 2178/release)
Writing library : VirtualDubMod build 2178/release
Video #0
ID : 0
Format : MPEG-4 Visual
Format profile : Advanced Simple@L5
Format settings, BVOP : 1
Format settings, QPel : No
Format settings, GMC : No warppoints
Format settings, Matrix : Custom
Codec ID : XVID
Codec ID/Hint : XviD
Duration : 1h 43mn 08s
Bit rate : 1 644 Kbps
Width : 704 pixels
Height : 288 pixels
Display aspect ratio : 2.40:1
Frame rate : 25.000 fps
Color space : YUV
Chroma subsampling : 4:2:0
Bit depth : 8 bits
Scan type : Progressive
Compression mode : Lossy
Bits/(Pixel*Frame) : 0.324
Stream size : 1.18 GiB (86%)
Writing library : XviD 64
Audio #1
ID : 1
Format : AC-3
Format/Info : Audio Coding 3
Mode extension : CM (complete main)
Format settings, Endianness : Big
Codec ID : 2000
Duration : 1h 43mn 08s
Bit rate mode : Constant
Bit rate : 256 Kbps
Channel(s) : 2 channels
Channel positions : Front: L R
Sampling rate : 48.0 KHz
Bit depth : 16 bits
Compression mode : Lossy
Stream size : 189 MiB (13%)
Alignment : Split accross interleaves
Interleave, duration : 96 ms (2.40 video frames)
Interleave, preload duration : 96 ms
Файл
Кодек: XviD
Качество: DVDRip
Видео: 704x288, 1644 kbps, 25 fps
Звук: AC3, 2 ch, 256 kbps

, , , ,
Релиз от:



Скачать Мальчишки.с.улицы.Пал.A.P‘l-utcai.fiЄk.(Золтан.Фабри).[1969.драма.DVDRip].[Dub].torrent без регистрации
Золото ЗОЛОТАЯ РАЗДАЧА! СКАЧАННОЕ НЕ ЗАСЧИТЫВАЕТСЯ! Золото
Дата: Зарегистрирован   [ Тип: внутренний ] Как тут cкачать?
MAGNET ссылка
MAGNET ссылка


Скачать .torrent

14 KB

Статус: проверено DHT
Скачан: торрент - 118 раз, раздача полностью - 0 раз
Размер: 1,37 GB
Оценка:  - (Голосов: 0)
Поблагодарили: 1
Поделиться ссылкой на эту раздачу с друзьями:
В контактеFacebookОдноклассникиTwitterLivejournalМой МирLiveinternet
 

 
Показать сообщения:    


Вы не можете начинать темы
Вы не можете отвечать на сообщения
Вы не можете редактировать свои сообщения
Вы не можете удалять свои сообщения
Вы не можете голосовать в опросах
Вы не можете прикреплять файлы к сообщениям
Вы можете скачивать файлы