Loading...
Error

Скачать Босс / Boss (Сезон 2, серии 01-10 из 10) (Марио Ван Пиблз) [2012, Драма, HDTVRip] [720p] [DVO] (NewStudio / БЯКО Рекордс) торрент без регистрации

 
Статистика раздачи
Размер:  18,13 GB   |    Скачан:  156 раз

Полного источника не было: 22 минуты

 
Автор Сообщение

leon030982

[] 

Босс / Boss

Год выпуска: 2012
Страна: США
Жанр: Драма
Продолжительность: 00:58:30
Перевод: Профессиональный двухголосый закадровый (БЯКО Рекордс)

Субтитры: рус, англ.
Режиссёр: Марио Ван Пиблз
В ролях: Келси Грэммер, Конни Нильсен, Джеймс Винсент Мередит, Кэтлин Робертсон, Ханна Уэр, Джефф Хефнер, Стив Ленц, Анита Николь Браун
Описание: Сюжет рассказывает о мэре Чикаго, страдающем тяжелым психическим заболеванием и, в результате, нарушениями памяти и рассудка, но окружающие, включая и его жену, об этом не догадываются. Starz победил в битве за съемки сериала и заказал сразу первый сезон из 8 серий, не дожидаясь выхода на экраны, сериал продлили на второй сезон. Посмотрим, оправдаются ли ожидания создателей Boss.
Сэмпл: http://multi-up.com/756903
Качество: HDTV 720p
Формат: MKV
Видео кодек: AVC
Аудио кодек: AC3
Видео: AVC, 1280x720 (16/9), 23.976 fps, 2432 kb/s (0.110 bit/pixel)
Аудио: AC-3, 48.0 KHz, 6 ch, 384 Kbps, CBR (Russian)
Аудио 2: AC-3, 48.0 KHz, 6 ch, 384 Kbps, CBR

Перевод: Илья Белкин
Озвучка: Константин Погодаев, Анна Тух (БЯКО Рекордс) + rus, eng субтитры
Работа со звуком: koss
Подготовка видео: koss
Постер: Vortex
Мед консультант: Knopf
Внимание: Сериал содержит ненормативную лексику.
General
Unique ID : 241790321272815865133937160197002326453 (0xB5E71F3B68412F7A9D993607608971B5)
Complete name : I:\ЗАКАЧКИ\Босс s02.720p.(NewStudio)\Boss.s02e01.720p.NewStudio.TV.mkv
Format : Matroska
File size : 1.31 GiB
Duration : 57mn 19s
Overall bit rate : 3 265 Kbps
Encoded date : UTC 2012-09-05 20:43:37
Writing application : mkvmerge v5.7.0 ('The Whirlwind') built on Jul 8 2012 20:08:51
Writing library : libebml v1.2.3 + libmatroska v1.3.0
Video
ID : 1
Format : AVC
Format/Info : Advanced Video Codec
Format profile : High@L4.1
Format settings, CABAC : Yes
Format settings, ReFrames : 5 frames
Format settings, GOP : M=4, N=8
Codec ID : V_MPEG4/ISO/AVC
Duration : 57mn 19s
Bit rate : 2 432 Kbps
Width : 1 280 pixels
Height : 720 pixels
Display aspect ratio : 16:9
Frame rate : 23.976 fps
Color space : YUV
Chroma subsampling : 4:2:0
Bit depth : 8 bits
Scan type : Progressive
Bits/(Pixel*Frame) : 0.110
Stream size : 997 MiB (74%)
Writing library : x264 core 125 r2208 d9d2288
Encoding settings : cabac=1 / ref=5 / deblock=1:0:0 / analyse=0x3:0x113 / me=umh / subme=8 / psy=1 / psy_rd=1.00:0.00 / mixed_ref=1 / me_range=16 / chroma_me=1 / trellis=1 / 8x8dct=1 / cqm=0 / deadzone=21,11 / fast_pskip=1 / chroma_qp_offset=-2 / threads=18 / lookahead_threads=3 / sliced_threads=0 / nr=0 / decimate=1 / interlaced=0 / bluray_compat=0 / constrained_intra=0 / bframes=3 / b_pyramid=2 / b_adapt=2 / b_bias=0 / direct=3 / weightb=1 / open_gop=0 / weightp=2 / keyint=250 / keyint_min=23 / scenecut=40 / intra_refresh=0 / rc_lookahead=50 / rc=crf / mbtree=1 / crf=18.0 / qcomp=0.60 / qpmin=0 / qpmax=69 / qpstep=4 / ip_ratio=1.40 / aq=1:1.00
Language : English
Matrix coefficients : BT.709-5, BT.1361, IEC 61966-2-4 709, SMPTE RP177
Audio #1
ID : 2
Format : AC-3
Format/Info : Audio Coding 3
Mode extension : CM (complete main)
Codec ID : A_AC3
Duration : 57mn 19s
Bit rate mode : Constant
Bit rate : 384 Kbps
Channel(s) : 6 channels
Channel positions : Front: L C R, Side: L R, LFE
Sampling rate : 48.0 KHz
Bit depth : 16 bits
Compression mode : Lossy
Stream size : 157 MiB (12%)
Language : Russian
Audio #2
ID : 3
Format : AC-3
Format/Info : Audio Coding 3
Mode extension : CM (complete main)
Codec ID : A_AC3
Duration : 57mn 19s
Bit rate mode : Constant
Bit rate : 384 Kbps
Channel(s) : 2 channels
Channel positions : Front: L R
Sampling rate : 48.0 KHz
Bit depth : 16 bits
Compression mode : Lossy
Stream size : 157 MiB (12%)
Language : English
Text #1
ID : 4
Format : UTF-8
Codec ID : S_TEXT/UTF8
Codec ID/Info : UTF-8 Plain Text
Language : Russian
Text #2
ID : 5
Format : UTF-8
Codec ID : S_TEXT/UTF8
Codec ID/Info : UTF-8 Plain Text
Language : English
Раздача ведётся путём добавления новых серий; при каждом добавлении создаётся новый торрент. Чтобы начать докачку новой серии, пользователям необходимо сделать следующее:
(1) остановить скачивание,
(2) удалить старый торрент у себя из клиента (старые серии удалять не надо),
(3) скачать новый торрент и запустить его у себя в клиенте вместо старого, при этом указать клиенту путь в старую папку куда и должно происходить скачивание новых серий.
Ваш клиент при этом должен произвести хеширование (проверку) старой папки (если не производит сам - помогите ему сделать это), и будет докачивать только те серии которых у вас ещё нет. Старые серии при этом не удаляются, а продолжают раздаваться!
Eсли вы уже удалили старые серии, то предотвратить повторную закачку старых серий можно, отжав галочку в соответствующих местах при запуске нового торрента. По возможности, желательно не удалять старые серии как можно дольше чтобы релизёр не столько продолжал раздавать старые серии, а смог сконцентрироваться на новых.
09.02.13 добавлена финальная серия!Сериал закрыт



Скачать Босс.Boss.(Сезон.2.серии.01-10.из.10).(Марио.Ван.Пиблз).[2012.Драма.HDTVRip].[720p].[DVO].(NewStudio.БЯКО.Рекордс).torrent без регистрации
Золото ЗОЛОТАЯ РАЗДАЧА! СКАЧАННОЕ НЕ ЗАСЧИТЫВАЕТСЯ! Золото
Дата: Зарегистрирован   [ Тип: внутренний ] Как тут cкачать?
MAGNET ссылка
MAGNET ссылка


Скачать .torrent

47 KB

Статус: проверено DHT
Скачан: торрент - 156 раз, раздача полностью - 2 раз
Размер: 18,13 GB
Оценка:  - (Голосов: 0)
Поблагодарили: 1
Поделиться ссылкой на эту раздачу с друзьями:
В контактеFacebookОдноклассникиTwitterLivejournalМой МирLiveinternet
 

 
Показать сообщения:    


Вы не можете начинать темы
Вы не можете отвечать на сообщения
Вы не можете редактировать свои сообщения
Вы не можете удалять свои сообщения
Вы не можете голосовать в опросах
Вы не можете прикреплять файлы к сообщениям
Вы можете скачивать файлы