Loading...
Error

Скачать Стрела / Arrow (Сезон 1-3, Серии 1-55 из 69) (Баррет, Эгил Эгилссон, Ник Копус) [2012-2014, Фантастика, боевик, драма, детектив, приключения , WEBDLRip-AVC 720р] [MVO] [LostFilm] торрент без регистрации

 
Статистика раздачи
Размер:  58,17 GB   |    Скачан:  930 раз
Сидов:  1  [  0 KB/s  ]  
 
Автор Сообщение

Nikolai.Baranov

[] 





Стрела / Arrow Сезон 1-3, Серии 1-55 из 69




Год выпуска: 2012-2014
Выпущено: США , Warner Bros. Television
Жанр: Фантастика, боевик, драма, детектив, приключения
Продолжительность: 00:42:00
Сезон: 1-3
Серии: 1-55
Количество серий в сезоне: 69
Озвучка:Профессиональная многоголосая закадровая(LostFilm.tv)
Субтитры: Нет

Сайт сериала



Режиссер: Баррет, Эгил Эгилссон, Ник Копус

В ролях: Стивен Амелл, Кэти Кэссиди, Колин Доннелл, Дэвид Рэмси, Уилла Холлэнд, Сюзанна Томпсон, Пол Блекторн, Колин Сэлмон, Эмили Бетт Рикардс, Энни Айлонзех


После пяти лет, проведенных на одном из необитаемых островов юго-восточной Азии, молодой и дерзкий миллиардер Оливер Куин возвращается домой другим человеком. Все это время все считали его погибшим в результате кораблекрушения. Однако, он оказался единственным из членов экипажа затонувшего судна, кому не просто удалось выжить... Внешние или внутренние обстоятельства превратили его в совершенно другого человека, правда, Оливер отчего-то не спешит предъявить себя в новом качестве общественности.



Качество : WEB-DLRip-AVC 720p
Формат: MPEG-4
Видео кодек: H264
Видео: 3118Кбит/сек,1280х720(16.9),в 25.000кадр/сек,AVC(Baseline@L3.1)(1Ref Frames)
Аудио кодек: AAC
Аудио Russian Dolby Digital 5.1:456-251Кбит/сек,44.1КГц,6каналов,AAC,(Version4)(LC)





Звуковая дорожка сделана путем наложения чистого голоса озвучивателей на центральный канал оригинальной дорожки. Качество идентично звуковой дорожке.




Список эпизодов 1сезона


01 Пилот (Pilot)
02 Чти отца своего (Honor Thy Father)
03 Одинокие стрелки (Lone Gunmen)
04 Невиновный (An Innocent Man)
05 Ущербный (Damaged)
06 Наследие (Legacies)
07 Муза огня (Muse of Fire)
08 Вендетта (Vendetta)
09 Конец года (Year's End)
10 Сгоревший (Burned)
11 Доверяй, но проверяй (Trust But Verify)
12 Вертиго (Vertigo)
13 Предательство (Betrayal)
14 Одиссея (The Odyssey)
15 Ловкач (Dodger)
17 Охотница возвращается (The Huntress Returns)
18 Спасение (Salvation)
19 Незаконченное дело (Unfinished Business)
20 Вторжение в дом (Home Invasion)
21 Предприятие (The Undertaking)
22 Темнота на краю города (Darkness on the Edge of Town)
23 Жертва (Sacrifice)


Список эпизодов 2сезона


01 Город героев (City of Heroes)
02 Найти себя (Identity)
03 Сломанные куклы (Broken Dolls) PROPER
04 Тяжёлое испытание (Crucible)
05 Лига убийц (League of Assassins)
06 Держи врагов ближе (Keep Your Enemies Closer)
07 Штат против Куинн (State vs Queen)
08 Учёный (The Scientist)
09 Три призрака (Three Ghosts)
10 Радиус поражения (Blast Radius)
11 Слепая зона (Blind Spot)
12 Волнения (Tremors)
13 Наследница демона (Heir to the Demon)
14 Время смерти (Time of Death)
15 Обещание (The Promise)
16 Отряд самоубийц (Suicide Squad)
17 Хищные птицы (Birds of Prey)
8 Дефстроук (Deathstroke)
19 Человек в капюшоне (The Man Under the Hood)
20 В ярости (Seeing Red)
21 Город в крови (City of Blood)
22 Улицы в огне (Streets of Fire)
23 Немыслимое (Unthinkable)


Список эпизодов 3сезона


01. Покой (The Calm)
02. Сара (Sara)
03. Корто Мальтез (Corto Maltese)
04. Колдун (The Magician)
05 Тайны прошлого Фелисити Смоук (The Secret Origin of Felicity Smoak)
06 Виновен (Guilty)
07 Придержи свой лук (Draw Back Your Bow)
08 Отважный и смелый (The Brave and the Bold)
09 Восхождение (The Climb)



Общее
Полное имя : F:\Новая папка (3)\Стрела\Arrow_S01_rus[LostFilm.TV]_DD5.1_x264_Nikolai.Baranov_WEB-DLRip-AVC_(720p)\Arrow_2012_S01E01_rus[LostFilm.TV]_DD5.1_x264_Nikolai.Baranov_WEB-DLRip-AVC_(720p).mp4
Формат : MPEG-4
Профиль формата : Base Media
Идентификатор кодека : isom
Размер файла : 1,07 Гбайт
Продолжительность : 42 м.
Режим общего битрейта : Переменный
Общий поток : 3575 Кбит/сек
Дата кодирования : UTC 2012-10-12 18:37:00
Дата пометки : UTC 2012-10-12 18:37:00
Программа кодирования : Lavf51.12.1

Видео
Идентификатор : 1
Формат : AVC
Формат/Информация : Advanced Video Codec
Профиль формата : Baseline@L3.1
Параметр CABAC формата : Нет
Параметр ReFrames формата : 1 кадр
Параметр GOP формата : M=1, N=12
Идентификатор кодека : avc1
Идентификатор кодека/Информация : Advanced Video Coding
Продолжительность : 42 м.
Вид битрейта : Переменный
Битрейт : 3115 Кбит/сек
Максимальный битрейт : 4500 Кбит/сек
Ширина : 1280 пикселей
Высота : 720 пикселей
Соотношение сторон : 16:9
Режим частоты кадров : Постоянный
Частота кадров : 25,000 кадров/сек
Частота кадров в оригинале : 24,000 кадра/сек
Цветовое пространство : YUV
Субдискретизация насыщенности : 4:2:0
Битовая глубина : 8 бит
Тип развёртки : Прогрессивная
Бит/(Пиксели*Кадры) : 0.135
Размер потока : 952 Мбайт (87%)
Дата кодирования : UTC 2012-10-12 18:37:00
Дата пометки : UTC 2012-10-12 18:37:00

Аудио
Идентификатор : 2
Формат : AAC
Формат/Информация : Advanced Audio Codec
Профиль формата : LC
Идентификатор кодека : 40
Продолжительность : 42 м.
Вид битрейта : Переменный
Битрейт : 456 Кбит/сек
Каналы : 6 каналов
Расположение каналов : Front: L C R, Side: L R, LFE
Частота : 44,1 КГц
Метод сжатия : С потерями
Размер потока : 139 Мбайт (13%)
Дата кодирования : UTC 2012-10-12 18:37:00
Дата пометки : UTC 2012-10-12 18:37:00



General
Полное имя : F:\Новая папка (3)\Стрела\Arrow_S01_-_S02_rus[LostFilm.TV]_DD5.1_x264_Nikolai.Baranov_WEB-DLRip-AVC_(720p)\Arrow_2013_S02E01_rus[LostFilm.TV]_DD5.1_x264_Nikolai.Baranov_WEB-DLRip-AVC_(720p).mp4
Формат : MPEG-4
Профиль формата : Base Media
Идентификатор кодека : isom
Размер файла : 1.00 GiB
Продолжительность : 42mn 33s
Режим общего битрейта : Variable
Общий поток : 3 373 Kbps
Дата кодирования : UTC 2013-10-14 09:30:08
Дата пометки : UTC 2013-10-14 09:30:08
Программа кодирования : Lavf51.12.1

Video
Идентификатор : 1
Формат : AVC
Формат/Информация : Advanced Video Codec
Профиль формата : Baseline@L3.1
Параметр CABAC формата : No
Параметр ReFrames формата : 1 frame
Параметр GOP формата : M=1, N=12
Идентификатор кодека : avc1
Идентификатор кодека/Информация : Advanced Video Coding
Продолжительность : 42mn 32s
Вид битрейта : Variable
Битрейт : 3 118 Kbps
Максимальный битрейт : 4 500 Kbps
Ширина : 1 280 pixels
Высота : 720 pixels
Соотношение сторон : 16:9
Режим частоты кадров : Constant
Частота кадров : 25.000 fps
Частота кадров в оригинале : 24.000 fps
Цветовое пространство : YUV
Субдискретизация насыщенности : 4:2:0
Битовая глубина : 8 bits
Тип развёртки : Progressive
Бит/(Пиксели*Кадры) : 0.135
Размер потока : 949 MiB (92%)
Дата кодирования : UTC 2013-10-14 09:30:08
Дата пометки : UTC 2013-10-14 09:30:08

Audio
Идентификатор : 2
Формат : AAC
Формат/Информация : Advanced Audio Codec
Профиль формата : LC
Идентификатор кодека : 40
Продолжительность : 42mn 33s
Вид битрейта : Variable
Битрейт : 251 Kbps
Каналы : 6 channels
Расположение каналов : Front: L C R, Side: L R, LFE
Частота : 44.1 KHz
Метод сжатия : Lossy
Размер потока : 76.4 MiB (7%)
Дата кодирования : UTC 2013-10-14 09:30:08
Дата пометки : UTC 2013-10-14 09:30:08



General
Полное имя : F:\Новая папка\Стрела\ARROW_S01_-_S03_RUS[LostFilm.TV]_DD5.1_x264_Nikolai.Baranov_WEB-DLRip-AVC_(720p)\S03\1\Arrow_2014_S03E01_rus[LostFilm.TV]_x264_Nikolai.Baranov_WEB-DLRip-AVC_(720p).mp4
Формат : MPEG-4
Профиль формата : Base Media
Идентификатор кодека : isom
Размер файла : 1.17 GiB
Продолжительность : 42mn 42s
Режим общего битрейта : Variable
Общий поток : 3 929 Kbps
Дата кодирования : UTC 2014-10-12 12:39:50
Дата пометки : UTC 2014-10-12 12:39:50
Программа кодирования : Lavf51.12.1

Video
Идентификатор : 1
Формат : AVC
Формат/Информация : Advanced Video Codec
Профиль формата : Baseline@L3.1
Параметр CABAC формата : No
Параметр ReFrames формата : 1 frame
Параметр GOP формата : M=1, N=12
Идентификатор кодека : avc1
Идентификатор кодека/Информация : Advanced Video Coding
Продолжительность : 42mn 42s
Вид битрейта : Variable
Битрейт : 3 634 Kbps
Максимальный битрейт : 5 250 Kbps
Ширина : 1 280 pixels
Высота : 720 pixels
Соотношение сторон : 16:9
Режим частоты кадров : Constant
Частота кадров : 25.000 fps
Частота кадров в оригинале : 24.000 fps
Цветовое пространство : YUV
Субдискретизация насыщенности : 4:2:0
Битовая глубина : 8 bits
Тип развёртки : Progressive
Бит/(Пиксели*Кадры) : 0.158
Размер потока : 1.08 GiB (92%)
Дата кодирования : UTC 2014-10-12 12:39:50
Дата пометки : UTC 2014-10-12 12:39:50

Audio
Идентификатор : 2
Формат : AAC
Формат/Информация : Advanced Audio Codec
Профиль формата : LC
Идентификатор кодека : 40
Продолжительность : 42mn 42s
Вид битрейта : Variable
Битрейт : 288 Kbps
Каналы : 2 channels
Channel(s)_Original : 6 channels
Расположение каналов : Front: L C R, Side: L R, LFE
Частота : 48.0 KHz
Метод сжатия : Lossy
Размер потока : 88.7 MiB (7%)
Дата кодирования : UTC 2014-10-12 12:39:50
Дата пометки : UTC 2014-10-12 12:39:50








1сезон

2сезон

3сезон

Внимание! Раздача пополняется по мере выхода новых серий!



Раздача ведётся путём добавления новых серий; при каждом добавлении создётся новый торрент.
Чтобы начать докачку новой серии, пользователям необходимо сделать следующее:
1. остановить скачивание,
2. удалить старый торрент у себя из клиента (старые серии удалять не надо),
3. скачать новый торрент и запустить его у себя в клиенте вместо старого, при этом указать клиенту путь в старую папку, куда и должно происходить скачивание новых серий.

Ваш клиент при этом должен произвести хеширование (проверку) старой папки (если не производит сам - помогите ему сделать это), и будет докачивать только те серии которых у вас ещё нет. Старые серии при этом не удаляются, а продолжают раздаваться!

Eсли вы уже удалили старые серии, то предотвратить повторную закачку старых серий можно, отжав галочку в соответсвующих местах при запуске нового торрента. По возможности, желательно не удалять старые серии как можно дольше, чтобы релизёр не столько продолжал раздавать старые серии, а смог сконцентрироваться на новых.

Совет для тех, кто не хочет ждать перехеширования:
Создайте ещё одну папку рядом с папкой сериала (рядом, а не в ней!!!). Каждую новую серию после удачной загрузки копируйте в новую папку так чтобы ваша основная папка всегда была пуста. Когда ваш новый торрент предложит вам закачать все файлы, выберете только последнюю. Для сидирования же укажите адрес новой папки.

Как закачать отдельный файл из торрента или докачать ранее пропущенные файлы торрента!

1. Открыть торрент
2. Снять галки с тех файлов торрента, которые мы не хотим закачивать. Оставляем только на нужных нам файлах (файле).
3. Нажать О.К.

В клиенте utorrent

Инструкция

1) Открыть торрент


2) Снять галки с тех файлов торрента, которые мы не хотим закачивать:

* либо вручную, снимая с каждого файла галку( скрин №1)
* либо, нажав кнопку "Снять метки (Select None)", сняв сразу со всех файлов(скрин №2)
№1

№2

Оставляем только на нужных нам файлах (файле).

3)Нажать О.К






Внимание!!! 14.12. 2014. РАЗДАЧА ОБНОВЛЕНА.ОБНОВИТЕ ТОРЕНТ ФАЙЛ.ПРИЯТНОГО ПРОСМОТРА .

Релиз от: Nikolai.Baranov










Скачать Стрела.Arrow.(Сезон.1-3.Серии.1-55.из.69).(Баррет.Эгил.Эгилссон.Ник.Копус).[2012-2014.Фантастика.боевик.драма.детектив.приключения.WEBDLRip-AVC.720р].[MVO].[LostFilm].torrent без регистрации
Золото ЗОЛОТАЯ РАЗДАЧА! СКАЧАННОЕ НЕ ЗАСЧИТЫВАЕТСЯ! Золото
Дата: Зарегистрирован   [ Тип: внутренний ] Как тут cкачать?
MAGNET ссылка
MAGNET ссылка


Скачать .torrent

154 KB

Статус: проверено DHT
Скачан: торрент - 930 раз, раздача полностью - 29 раз
Размер: 58,17 GB
Оценка:  4,5 (Голосов: 8)
Поблагодарили: 28
Поделиться ссылкой на эту раздачу с друзьями:
В контактеFacebookОдноклассникиTwitterLivejournalМой МирLiveinternet
 

 
Показать сообщения:    


Вы не можете начинать темы
Вы не можете отвечать на сообщения
Вы не можете редактировать свои сообщения
Вы не можете удалять свои сообщения
Вы не можете голосовать в опросах
Вы не можете прикреплять файлы к сообщениям
Вы можете скачивать файлы